<?xml version="1.0" standalone="no"?>
<!DOCTYPE svg PUBLIC "-//W3C//DTD SVG 1.1//EN" "http://www.w3.org/Graphics/SVG/1.1/DTD/svg11.dtd" >
<svg xmlns="http://www.w3.org/2000/svg">
<metadata>Generated by IcoMoon</metadata>
<defs>
<font id="icomoon" horiz-adv-x="1024">
<font-face units-per-em="1024" ascent="960" descent="-64" />
<missing-glyph horiz-adv-x="1024" />
<glyph unicode="&#x20;" horiz-adv-x="512" d="" />
<glyph unicode="&#xe900;" d="M959.872 404.907l-73.813 89.6c-20.907 188.16-115.2 380.16-371.2 380.16-241.493-0.427-384-176.64-384-404.053 0-163.413 81.067-238.080 113.92-352 16.64-57.173 66.133-97.28 123.307-97.28 86.229 0 280.405 0 368.213 0 61.013 0 113.536 43.093 125.44 102.912l22.187 111.275 47.787 26.453c52.48 28.16 65.707 96.853 28.16 142.933z" />
<glyph unicode="&#xe901;" d="M938.667 405.333h-256v341.333c0 47.147 38.187 85.333 85.333 85.333h85.333c47.147 0 85.333-38.187 85.333-85.333v-341.333z" />
<glyph unicode="&#xe902;" d="M682.667 405.333h256v-256c0-47.147-38.187-85.333-85.333-85.333h-85.333c-47.147 0-85.333 38.187-85.333 85.333v256z" />
<glyph unicode="&#xe903;" d="M640 277.333h-256v256c0 47.147 38.187 85.333 85.333 85.333h85.333c47.147 0 85.333-38.187 85.333-85.333v-256z" />
<glyph unicode="&#xe904;" d="M384 277.333h256v-128c0-47.147-38.187-85.333-85.333-85.333h-85.333c-47.147 0-85.333 38.187-85.333 85.333v128z" />
<glyph unicode="&#xe905;" d="M341.333 448h-256v213.333c0 47.147 38.187 85.333 85.333 85.333h85.333c47.147 0 85.333-38.187 85.333-85.333v-213.333z" />
<glyph unicode="&#xe906;" d="M85.333 448h256v-298.667c0-47.147-38.187-85.333-85.333-85.333h-85.333c-47.147 0-85.333 38.187-85.333 85.333v298.667z" />
<glyph unicode="&#xe907;" d="M42.667 704v-256c0-47.147 38.187-85.333 85.333-85.333h312.875c18.475 0 36.437-5.973 51.2-17.067l79.659-59.733c28.117-21.077 68.267-1.024 68.267 34.133v384c0 47.147-38.187 85.333-85.333 85.333h-426.667c-47.147 0-85.333-38.187-85.333-85.333zM426.667 576c0 23.552 19.115 42.667 42.667 42.667s42.667-19.115 42.667-42.667c0-23.552-19.115-42.667-42.667-42.667s-42.667 19.115-42.667 42.667zM298.667 576c0 23.552 19.115 42.667 42.667 42.667s42.667-19.115 42.667-42.667c0-23.552-19.115-42.667-42.667-42.667s-42.667 19.115-42.667 42.667zM170.667 576c0 23.552 19.115 42.667 42.667 42.667s42.667-19.115 42.667-42.667c0-23.552-19.115-42.667-42.667-42.667s-42.667 19.115-42.667 42.667z" />
<glyph unicode="&#xe908;" d="M768 64h-512c-70.699 0-128 57.301-128 128v469.333h768v-469.333c0-70.699-57.301-128-128-128z" />
<glyph unicode="&#xe909;" d="M768 832h-512c-70.699 0-128-57.301-128-128v-42.667h768v42.667c0 70.699-57.301 128-128 128z" />
<glyph unicode="&#xe90a;" d="M640 192c0-23.564-19.103-42.667-42.667-42.667s-42.667 19.103-42.667 42.667c0 23.564 19.103 42.667 42.667 42.667s42.667-19.103 42.667-42.667z" />
<glyph unicode="&#xe90b;" d="M469.333 192c0-23.564-19.103-42.667-42.667-42.667s-42.667 19.103-42.667 42.667c0 23.564 19.103 42.667 42.667 42.667s42.667-19.103 42.667-42.667z" />
<glyph unicode="&#xe90c;" d="M298.667 192c0-23.564-19.103-42.667-42.667-42.667s-42.667 19.103-42.667 42.667c0 23.564 19.103 42.667 42.667 42.667s42.667-19.103 42.667-42.667z" />
<glyph unicode="&#xe90d;" d="M298.667 362.667c0-23.564-19.103-42.667-42.667-42.667s-42.667 19.103-42.667 42.667c0 23.564 19.103 42.667 42.667 42.667s42.667-19.103 42.667-42.667z" />
<glyph unicode="&#xe90e;" d="M469.333 362.667c0-23.564-19.103-42.667-42.667-42.667s-42.667 19.103-42.667 42.667c0 23.564 19.103 42.667 42.667 42.667s42.667-19.103 42.667-42.667z" />
<glyph unicode="&#xe90f;" d="M640 362.667c0-23.564-19.103-42.667-42.667-42.667s-42.667 19.103-42.667 42.667c0 23.564 19.103 42.667 42.667 42.667s42.667-19.103 42.667-42.667z" />
<glyph unicode="&#xe910;" d="M810.667 362.667c0-23.564-19.103-42.667-42.667-42.667s-42.667 19.103-42.667 42.667c0 23.564 19.103 42.667 42.667 42.667s42.667-19.103 42.667-42.667z" />
<glyph unicode="&#xe911;" d="M810.667 533.333c0-23.564-19.103-42.667-42.667-42.667s-42.667 19.103-42.667 42.667c0 23.564 19.103 42.667 42.667 42.667s42.667-19.103 42.667-42.667z" />
<glyph unicode="&#xe912;" d="M640 533.333c0-23.564-19.103-42.667-42.667-42.667s-42.667 19.103-42.667 42.667c0 23.564 19.103 42.667 42.667 42.667s42.667-19.103 42.667-42.667z" />
<glyph unicode="&#xe913;" d="M469.333 533.333c0-23.564-19.103-42.667-42.667-42.667s-42.667 19.103-42.667 42.667c0 23.564 19.103 42.667 42.667 42.667s42.667-19.103 42.667-42.667z" />
<glyph unicode="&#xe914;" d="M213.333 533.333h597.333v-213.333h-597.333v213.333z" />
<glyph unicode="&#xe915;" d="M768 746.667h-85.333v-128h-341.333v128h-85.333c-70.699 0-128-57.301-128-128v-384h768v384c0 70.699-57.301 128-128 128zM341.333 448c-23.552 0-42.667 19.115-42.667 42.667s19.115 42.667 42.667 42.667 42.667-19.115 42.667-42.667-19.115-42.667-42.667-42.667zM512 448c-23.552 0-42.667 19.115-42.667 42.667s19.115 42.667 42.667 42.667 42.667-19.115 42.667-42.667-19.115-42.667-42.667-42.667zM682.667 448c-23.552 0-42.667 19.115-42.667 42.667s19.115 42.667 42.667 42.667 42.667-19.115 42.667-42.667-19.115-42.667-42.667-42.667zM341.333 320c-23.552 0-42.667 19.115-42.667 42.667s19.115 42.667 42.667 42.667 42.667-19.115 42.667-42.667-19.115-42.667-42.667-42.667zM512 320c-23.552 0-42.667 19.115-42.667 42.667s19.115 42.667 42.667 42.667 42.667-19.115 42.667-42.667-19.115-42.667-42.667-42.667zM682.667 320c-23.552 0-42.667 19.115-42.667 42.667s19.115 42.667 42.667 42.667 42.667-19.115 42.667-42.667-19.115-42.667-42.667-42.667z" />
<glyph unicode="&#xe916;" d="M554.667 234.667c0-23.552-19.115-42.667-42.667-42.667s-42.667 19.115-42.667 42.667h-341.333v-42.667c0-70.699 57.301-128 128-128h512c70.699 0 128 57.301 128 128v42.667h-341.333z" />
<glyph unicode="&#xe917;" d="M341.333 576v225.792c0 33.493 35.243 55.253 65.195 40.277v0c12.672-6.357 27.605-6.357 40.277 0l45.056 22.528c12.672 6.357 27.605 6.357 40.277 0l45.056-22.528c12.672-6.357 27.605-6.357 40.277 0v0c29.952 14.976 65.195-6.784 65.195-40.277v-225.792h-341.333z" />
<glyph unicode="&#xe918;" d="M554.667 234.667c0-23.564-19.103-42.667-42.667-42.667s-42.667 19.103-42.667 42.667c0 23.564 19.103 42.667 42.667 42.667s42.667-19.103 42.667-42.667z" />
<glyph unicode="&#xe919;" d="M938.667 448c0-235.641-191.025-426.667-426.667-426.667s-426.667 191.025-426.667 426.667c0 235.641 191.025 426.667 426.667 426.667s426.667-191.025 426.667-426.667z" />
<glyph unicode="&#xe91a;" d="M631.723 543.147l314.069 89.728c26.155 7.467 39.168 37.461 26.155 61.355-37.333 68.651-92.928 125.824-160.341 165.077-21.419 12.459-49.067 4.352-60.16-17.835l-138.112-276.139c-6.144-12.245 5.248-25.941 18.389-22.187z" />
<glyph unicode="&#xe91b;" d="M512 490.667v384c-239.659 0-433.195-197.632-426.496-438.784 6.187-222.635 191.787-408.235 414.421-414.379 241.152-6.656 438.741 186.837 438.741 426.496h-384c-23.552 0-42.667 19.115-42.667 42.667z" />
<glyph unicode="&#xe91c;" d="M896 320h-512c-47.147 0-85.333 38.187-85.333 85.333v341.333c0 47.147 38.187 85.333 85.333 85.333h512c47.147 0 85.333-38.187 85.333-85.333v-341.333c0-47.147-38.187-85.333-85.333-85.333z" />
<glyph unicode="&#xe91d;" d="M853.333 746.667c0 70.699-57.301 128-128 128h-426.667c-70.699 0-128-57.301-128-128v-597.333c0-70.699 57.301-128 128-128h426.667c70.699 0 128 57.301 128 128v597.333z" />
<glyph unicode="&#xe91e;" d="M618.667 789.333h-213.333c-35.371 0-64 28.672-64 64s28.629 64 64 64h213.333c35.371 0 64-28.672 64-64s-28.629-64-64-64z" />
<glyph unicode="&#xe91f;" d="M512 576c-7.936 0-162.731 0-170.667 0-23.552 0-42.667-19.115-42.667-42.667s19.115-42.667 42.667-42.667c7.936 0 162.731 0 170.667 0 23.552 0 42.667 19.115 42.667 42.667s-19.115 42.667-42.667 42.667z" />
<glyph unicode="&#xe920;" d="M512 320c-7.936 0-162.731 0-170.667 0-23.552 0-42.667-19.115-42.667-42.667s19.115-42.667 42.667-42.667c7.936 0 162.731 0 170.667 0 23.552 0 42.667 19.115 42.667 42.667s-19.115 42.667-42.667 42.667z" />
<glyph unicode="&#xe921;" d="M725.333 533.333c0-23.564-19.103-42.667-42.667-42.667s-42.667 19.103-42.667 42.667c0 23.564 19.103 42.667 42.667 42.667s42.667-19.103 42.667-42.667z" />
<glyph unicode="&#xe922;" d="M725.333 277.333c0-23.564-19.103-42.667-42.667-42.667s-42.667 19.103-42.667 42.667c0 23.564 19.103 42.667 42.667 42.667s42.667-19.103 42.667-42.667z" />
<glyph unicode="&#xe923;" d="M566.485 429.611l-161.792-40.448c-53.845-13.44-106.027 27.264-106.027 82.816v189.355h-36.992c-56.875 0-110.037-28.331-141.696-75.605l-77.312-115.243v-278.485c0-70.699 57.301-128 128-128h85.248c55.424 0 109.355 18.005 153.685 51.285l225.579 169.387c28.331 21.077 39.893 57.984 28.715 91.477v0c-13.44 40.533-55.936 63.829-97.408 53.461z" />
<glyph unicode="&#xe924;" d="M661.333 405.333h-298.667c-82.475 0-149.333-66.859-149.333-149.333s66.859-149.333 149.333-149.333h298.667c82.475 0 149.333 66.859 149.333 149.333s-66.859 149.333-149.333 149.333z" />
<glyph unicode="&#xe925;" d="M874.667 320h-725.333c-58.923 0-106.667-47.744-106.667-106.667s47.744-106.667 106.667-106.667h725.333c58.923 0 106.667 47.744 106.667 106.667s-47.744 106.667-106.667 106.667z" />
<glyph unicode="&#xe926;" d="M682.667 661.333c0-94.257-76.41-170.667-170.667-170.667s-170.667 76.41-170.667 170.667c0 94.257 76.41 170.667 170.667 170.667s170.667-76.41 170.667-170.667z" />
<glyph unicode="&#xe927;" d="M981.333 576c0-70.692-57.308-128-128-128s-128 57.308-128 128c0 70.692 57.308 128 128 128s128-57.308 128-128z" />
<glyph unicode="&#xe928;" d="M298.667 576c0-70.692-57.308-128-128-128s-128 57.308-128 128c0 70.692 57.308 128 128 128s128-57.308 128-128z" />
<glyph unicode="&#xe929;" d="M768 64h-512c-70.699 0-128 57.301-128 128v469.333h768v-469.333c0-70.699-57.301-128-128-128z" />
<glyph unicode="&#xe92a;" d="M512 64h-213.333v298.667c0 23.552 19.115 42.667 42.667 42.667h128c23.552 0 42.667-19.115 42.667-42.667v-298.667z" />
<glyph unicode="&#xe92b;" d="M725.333 234.667h-85.333c-23.552 0-42.667 19.115-42.667 42.667v85.333c0 23.552 19.115 42.667 42.667 42.667h85.333c23.552 0 42.667-19.115 42.667-42.667v-85.333c0-23.552-19.115-42.667-42.667-42.667z" />
<glyph unicode="&#xe92c;" d="M934.187 595.072l-38.187 76.331v32.597c0 70.699-57.301 128-128 128h-512c-70.699 0-128-57.301-128-128v-32.597l-38.187-76.331c-8.619-17.237-4.608-38.059 9.771-50.901 6.144-5.461 61.995-53.504 135.083-53.504 47.275 0 87.381 20.139 111.445 35.797 33.067-14.251 94.72-35.797 165.888-35.797s132.821 21.547 165.888 35.797c24.064-15.659 64.171-35.797 111.445-35.797 73.088 0 128.939 48.043 135.083 53.504 14.379 12.843 18.389 33.664 9.771 50.901z" />
<glyph unicode="&#xe92d;" d="M554.667 448c0-23.564-19.103-42.667-42.667-42.667s-42.667 19.103-42.667 42.667c0 23.564 19.103 42.667 42.667 42.667s42.667-19.103 42.667-42.667z" />
<glyph unicode="&#xe92e;" d="M896 704v-358.827c-26.027 11.093-55.040 17.493-85.333 17.493-69.547 0-131.84-33.707-170.667-85.333v512h170.667c46.933 0 85.333-38.4 85.333-85.333z" />
<glyph unicode="&#xe92f;" d="M810.667 362.667c-70.101 0-131.755-34.304-170.667-86.571v509.696c0 55.424-52.608 97.323-109.739 87.424l-364.032-63.189c-22.144-3.84-38.229-22.229-38.229-43.691v-636.672c0-21.461 16.085-39.851 38.229-43.691l364.032-63.189c35.584-6.187 69.376 7.765 89.813 32.512 34.859-70.4 106.752-119.296 190.592-119.296 117.76 0 213.333 95.573 213.333 213.333s-95.573 213.333-213.333 213.333zM922.453 165.547l-106.667-106.667c-7.253-6.827-16.64-11.093-26.453-11.093s-19.2 4.267-26.453 11.093l-64 64c-14.507 14.507-14.507 38.4 0 52.907s38.4 14.507 52.907 0l37.547-37.547 80.213 80.213c14.507 14.507 38.4 14.507 52.907 0s14.507-38.4 0-52.907z" />
<glyph unicode="&#xe930;" d="M922.453 165.547l-106.667-106.667c-7.253-6.827-16.64-11.093-26.453-11.093s-19.2 4.267-26.453 11.093l-64 64c-14.507 14.507-14.507 38.4 0 52.907s38.4 14.507 52.907 0l37.547-37.547 80.213 80.213c14.507 14.507 38.4 14.507 52.907 0s14.507-38.4 0-52.907z" />
<glyph unicode="&#xe931;" d="M341.333 576h341.333v-256h-341.333v256z" />
<glyph unicode="&#xe932;" d="M810.667 106.667h-85.333c-23.552 0-42.667 19.115-42.667 42.667v597.333c0 23.552 19.115 42.667 42.667 42.667h85.333c23.552 0 42.667-19.115 42.667-42.667v-597.333c0-23.552-19.115-42.667-42.667-42.667z" />
<glyph unicode="&#xe933;" d="M938.667 192h-42.667c-23.552 0-42.667 19.115-42.667 42.667v426.667c0 23.552 19.115 42.667 42.667 42.667h42.667c23.552 0 42.667-19.115 42.667-42.667v-426.667c0-23.552-19.115-42.667-42.667-42.667z" />
<glyph unicode="&#xe934;" d="M128 192h-42.667c-23.552 0-42.667 19.115-42.667 42.667v426.667c0 23.552 19.115 42.667 42.667 42.667h42.667c23.552 0 42.667-19.115 42.667-42.667v-426.667c0-23.552-19.115-42.667-42.667-42.667z" />
<glyph unicode="&#xe935;" d="M213.333 789.333h85.333c23.552 0 42.667-19.115 42.667-42.667v-597.333c0-23.552-19.115-42.667-42.667-42.667h-85.333c-23.552 0-42.667 19.115-42.667 42.667v597.333c0 23.552 19.115 42.667 42.667 42.667z" />
<glyph unicode="&#xe936;" d="M298.667 746.667h682.667v-85.333h-682.667v85.333z" />
<glyph unicode="&#xe937;" d="M810.667 64h-597.333c-47.147 0-85.333 38.187-85.333 85.333v479.36c0 46.507 25.216 89.301 65.835 111.872l256 142.208c38.656 21.461 85.675 21.461 124.331 0l256-142.208c40.619-22.571 65.835-65.408 65.835-111.872v-479.36c0-47.147-38.187-85.333-85.333-85.333z" />
<glyph unicode="&#xe938;" d="M384 234.667h-42.667c-23.552 0-42.667 19.115-42.667 42.667v256c0 23.552 19.115 42.667 42.667 42.667h42.667c23.552 0 42.667-19.115 42.667-42.667v-256c0-23.552-19.115-42.667-42.667-42.667z" />
<glyph unicode="&#xe939;" d="M298.667 320h-42.667c-23.552 0-42.667 19.115-42.667 42.667v85.333c0 23.552 19.115 42.667 42.667 42.667h42.667c23.552 0 42.667-19.115 42.667-42.667v-85.333c0-23.552-19.115-42.667-42.667-42.667z" />
<glyph unicode="&#xe93a;" d="M768 320h-42.667c-23.552 0-42.667 19.115-42.667 42.667v85.333c0 23.552 19.115 42.667 42.667 42.667h42.667c23.552 0 42.667-19.115 42.667-42.667v-85.333c0-23.552-19.115-42.667-42.667-42.667z" />
<glyph unicode="&#xe93b;" d="M682.667 234.667h-42.667c-23.552 0-42.667 19.115-42.667 42.667v256c0 23.552 19.115 42.667 42.667 42.667h42.667c23.552 0 42.667-19.115 42.667-42.667v-256c0-23.552-19.115-42.667-42.667-42.667z" />
<glyph unicode="&#xe93c;" d="M640 362.667h-256c-23.552 0-42.667 19.115-42.667 42.667v0c0 23.552 19.115 42.667 42.667 42.667h256c23.552 0 42.667-19.115 42.667-42.667v0c0-23.552-19.115-42.667-42.667-42.667z" />
<glyph unicode="&#xe93d;" d="M938.667 448c0-235.641-191.025-426.667-426.667-426.667s-426.667 191.025-426.667 426.667c0 235.641 191.025 426.667 426.667 426.667s426.667-191.025 426.667-426.667z" />
<glyph unicode="&#xe93e;" d="M789.333 789.333h-298.667c-58.923 0-106.667-47.744-106.667-106.667v-361.088l-170.667-1.579v-170.667h170.667v-21.333c0-58.923 47.744-106.667 106.667-106.667h298.667c58.923 0 106.667 47.744 106.667 106.667v554.667c0 58.923-47.744 106.667-106.667 106.667z" />
<glyph unicode="&#xe93f;" d="M725.333 192c-7.936 0-162.731 0-170.667 0-23.552 0-42.667-19.115-42.667-42.667s19.115-42.667 42.667-42.667c7.936 0 162.731 0 170.667 0 23.552 0 42.667 19.115 42.667 42.667s-19.115 42.667-42.667 42.667z" />
<glyph unicode="&#xe940;" d="M637.867 789.333h-147.2c-58.88 0-106.667-47.787-106.667-106.667v-405.333h-85.333c-23.467 0-42.667-19.2-42.667-42.667s19.2-42.667 42.667-42.667h85.333v-64c0-7.253 0.853-14.507 2.133-21.333h-151.467c-58.88 0-106.667 47.787-106.667 106.667v554.667c0 58.88 47.787 106.667 106.667 106.667h298.667c51.627 0 94.72-36.693 104.533-85.333z" />
<glyph unicode="&#xe941;" d="M213.333 789.333c-70.699 0-128-57.301-128-128v-93.184c49.621-17.621 85.333-64.512 85.333-120.149s-35.712-102.528-85.333-120.149v-93.184c0-70.699 57.301-128 128-128h512v682.667h-512z" />
<glyph unicode="&#xe942;" d="M938.667 234.667v93.184c-49.621 17.621-85.333 64.512-85.333 120.149s35.712 102.528 85.333 120.149v93.184c0 70.699-57.301 128-128 128h-85.333v-682.667h85.333c70.699 0 128 57.301 128 128z" />
<glyph unicode="&#xe943;" d="M417.408 598.741c4.181 7.851 12.331 12.757 21.205 12.757s17.067-4.907 21.205-12.757l40.277-75.947c0.469-0.896 1.109-1.621 1.92-2.219s1.749-0.981 2.731-1.152l84.651-14.848c8.747-1.536 15.957-7.765 18.688-16.256 2.731-8.448 0.597-17.749-5.589-24.149l-59.776-61.781c-0.683-0.725-1.195-1.579-1.536-2.517-0.299-0.939-0.384-1.963-0.256-2.944l12.032-85.12c1.237-8.789-2.475-17.579-9.643-22.827-7.211-5.248-16.683-6.059-24.661-2.133l-77.184 37.76c-0.896 0.427-1.877 0.683-2.859 0.683s-1.963-0.213-2.859-0.64l-77.184-37.76c-7.979-3.925-17.493-3.072-24.661 2.133-7.211 5.248-10.923 13.995-9.643 22.827l12.032 85.12c0.128 0.981 0.043 2.005-0.256 2.944s-0.811 1.835-1.536 2.517l-59.776 61.781c-6.187 6.4-8.32 15.659-5.589 24.149 2.731 8.448 9.941 14.677 18.688 16.256l84.651 14.848c0.981 0.171 1.92 0.555 2.731 1.152s1.451 1.323 1.92 2.219l40.277 75.904z" />
<glyph unicode="&#xe944;" d="M469.333 277.333c-10.923 0-21.845 4.181-30.165 12.501l-128 128c-16.683 16.683-16.683 43.648 0 60.331s43.648 16.683 60.331 0l97.835-97.835 183.168 183.168c16.683 16.683 43.648 16.683 60.331 0s16.683-43.648 0-60.331l-213.333-213.333c-8.32-8.32-19.243-12.501-30.165-12.501z" />
<glyph unicode="&#xe945;" d="M938.667 448c0-235.641-191.025-426.667-426.667-426.667s-426.667 191.025-426.667 426.667c0 235.641 191.025 426.667 426.667 426.667s426.667-191.025 426.667-426.667z" />
<glyph unicode="&#xe946;" d="M631.467 268.8l-298.667 298.667c-17.067 17.067-17.067 42.667 0 59.733v0c17.067 17.067 42.667 17.067 59.733 0l298.667-298.667c17.067-17.067 17.067-42.667 0-59.733v0c-17.067-17.067-42.667-17.067-59.733 0z" />
<glyph unicode="&#xe947;" d="M384 149.333h341.333c70.699 0 128 57.301 128 128v384l-170.667 213.333h-298.667c-70.699 0-128-57.301-128-128v-469.333c0-70.699 57.301-128 128-128z" />
<glyph unicode="&#xe948;" d="M469.333 149.333h-85.333c-70.699 0-128 57.301-128 128v469.333c-70.699 0-128-57.301-128-128v-469.333c0-70.699 57.301-128 128-128h341.333c70.699 0 128 57.301 128 128h-256z" />
<glyph unicode="&#xe949;" d="M682.667 746.667v128l170.667-213.333h-85.333c-47.147 0-85.333 38.187-85.333 85.333z" />
<glyph unicode="&#xe94a;" d="M764.715 549.632c-4.309 10.453-12.629 18.773-23.083 23.083-5.205 2.133-10.752 3.285-16.299 3.285h-110.336c-38.016 0-57.045-45.952-30.165-72.832l25.003-25.003-97.835-97.835-97.835 97.835c-16.683 16.683-43.648 16.683-60.331 0s-16.683-43.648 0-60.331l128-128c8.32-8.32 19.243-12.501 30.165-12.501s21.845 4.181 30.165 12.501l128 128 25.003-25.003c26.88-26.88 72.832-7.851 72.832 30.165v110.336c0 5.547-1.152 11.093-3.285 16.299z" />
<glyph unicode="&#xe94b;" d="M938.667 576v-314.027c-31.147 35.413-76.8 58.027-128 58.027-14.933 0-29.013-1.707-42.667-5.547v346.88h85.333c46.933 0 85.333-38.4 85.333-85.333z" />
<glyph unicode="&#xe94c;" d="M810.667 320c-14.805 0-28.971-2.475-42.667-6.016v390.016c0 70.699-57.301 128-128 128h-384c-70.699 0-128-57.301-128-128v-512c0-70.699 57.301-128 128-128h407.68c29.568-50.816 83.968-85.333 146.987-85.333 94.251 0 170.667 76.416 170.667 170.667s-76.416 170.667-170.667 170.667z" />
<glyph unicode="&#xe94d;" d="M541.013 277.333c-12.8-26.453-21.76-55.040-25.6-85.333h-216.747c-23.467 0-42.667 19.2-42.667 42.667s19.2 42.667 42.667 42.667h242.347z" />
<glyph unicode="&#xe94e;" d="M576 661.333c-16.469 0-239.531 0-256 0-35.328 0-64-28.672-64-64s28.672-64 64-64c16.469 0 239.531 0 256 0 35.328 0 64 28.672 64 64s-28.672 64-64 64z" />
<glyph unicode="&#xe94f;" d="M640 405.333c0-4.267-0.853-8.96-2.133-12.8-12.8-8.533-24.32-18.347-35.413-29.44-1.707-0.427-3.413-0.427-5.12-0.427h-298.667c-23.467 0-42.667 19.2-42.667 42.667s19.2 42.667 42.667 42.667h298.667c23.467 0 42.667-19.2 42.667-42.667z" />
<glyph unicode="&#xe950;" d="M810.667 362.667c-117.76 0-213.333-95.573-213.333-213.333s95.573-213.333 213.333-213.333 213.333 95.573 213.333 213.333-95.573 213.333-213.333 213.333zM945.067 118.187c-2.987-13.227-8.107-26.027-14.933-37.973-25.6-43.947-72.107-68.693-119.893-68.693-23.040 0-46.933 5.973-68.693 18.347-32 18.347-54.613 48.213-64 83.627-9.813 35.84-4.693 72.96 13.653 104.96 31.147 54.187 93.867 78.080 151.893 64.427l5.12 10.667c8.107 15.787 30.72 15.787 38.4-0.427l30.293-61.867c5.973-12.373-1.28-27.307-15.36-30.293l-67.413-13.227c-17.493-3.413-31.147 14.507-23.040 30.293l2.133 4.693c-26.453 0.853-52.48-11.947-66.56-36.267-9.813-17.067-12.373-37.12-7.253-56.32s17.067-34.987 34.133-44.8c35.413-20.48 80.64-8.107 101.12 26.88 3.84 6.4 6.4 13.227 8.107 20.48 4.267 17.493 21.333 28.16 38.4 23.893 17.493-3.84 28.16-21.333 23.893-38.4z" />
<glyph unicode="&#xe951;" d="M332.8 328.533l298.667 298.667c17.067 17.067 42.667 17.067 59.733 0v0c17.067-17.067 17.067-42.667 0-59.733l-298.667-298.667c-17.067-17.067-42.667-17.067-59.733 0v0c-17.067 17.067-17.067 42.667 0 59.733z" />
<glyph unicode="&#xe952;" d="M640 192c0-23.564-19.103-42.667-42.667-42.667s-42.667 19.103-42.667 42.667c0 23.564 19.103 42.667 42.667 42.667s42.667-19.103 42.667-42.667z" />
<glyph unicode="&#xe953;" d="M469.333 192c0-23.564-19.103-42.667-42.667-42.667s-42.667 19.103-42.667 42.667c0 23.564 19.103 42.667 42.667 42.667s42.667-19.103 42.667-42.667z" />
<glyph unicode="&#xe954;" d="M298.667 192c0-23.564-19.103-42.667-42.667-42.667s-42.667 19.103-42.667 42.667c0 23.564 19.103 42.667 42.667 42.667s42.667-19.103 42.667-42.667z" />
<glyph unicode="&#xe955;" d="M298.667 362.667c0-23.564-19.103-42.667-42.667-42.667s-42.667 19.103-42.667 42.667c0 23.564 19.103 42.667 42.667 42.667s42.667-19.103 42.667-42.667z" />
<glyph unicode="&#xe956;" d="M469.333 362.667c0-23.564-19.103-42.667-42.667-42.667s-42.667 19.103-42.667 42.667c0 23.564 19.103 42.667 42.667 42.667s42.667-19.103 42.667-42.667z" />
<glyph unicode="&#xe957;" d="M640 362.667c0-23.564-19.103-42.667-42.667-42.667s-42.667 19.103-42.667 42.667c0 23.564 19.103 42.667 42.667 42.667s42.667-19.103 42.667-42.667z" />
<glyph unicode="&#xe958;" d="M810.667 362.667c0-23.564-19.103-42.667-42.667-42.667s-42.667 19.103-42.667 42.667c0 23.564 19.103 42.667 42.667 42.667s42.667-19.103 42.667-42.667z" />
<glyph unicode="&#xe959;" d="M810.667 533.333c0-23.564-19.103-42.667-42.667-42.667s-42.667 19.103-42.667 42.667c0 23.564 19.103 42.667 42.667 42.667s42.667-19.103 42.667-42.667z" />
<glyph unicode="&#xe95a;" d="M640 533.333c0-23.564-19.103-42.667-42.667-42.667s-42.667 19.103-42.667 42.667c0 23.564 19.103 42.667 42.667 42.667s42.667-19.103 42.667-42.667z" />
<glyph unicode="&#xe95b;" d="M469.333 533.333c0-23.564-19.103-42.667-42.667-42.667s-42.667 19.103-42.667 42.667c0 23.564 19.103 42.667 42.667 42.667s42.667-19.103 42.667-42.667z" />
<glyph unicode="&#xe95c;" d="M408.661 661.333c-32.939-75.264-107.904-128-195.328-128-30.379 0-59.179 6.571-85.333 18.005v-359.339c0-70.699 57.301-128 128-128h512c70.699 0 128 57.301 128 128v469.333h-487.339z" />
<glyph unicode="&#xe95d;" d="M768 832h-359.339c11.435-26.155 18.005-54.955 18.005-85.333s-6.571-59.179-18.005-85.333c-32.939-75.264-107.904-128-195.328-128-30.379 0-59.179 6.571-85.333 18.005v-90.795c27.051-8.064 55.68-12.544 85.333-12.544 135.253 0 249.387 89.984 286.123 213.333h396.544v42.667c0 70.699-57.301 128-128 128z" />
<glyph unicode="&#xe95e;" d="M426.667 746.667c0-117.821-95.513-213.333-213.333-213.333s-213.333 95.513-213.333 213.333c0 117.821 95.513 213.333 213.333 213.333s213.333-95.513 213.333-213.333z" />
<glyph unicode="&#xe95f;" d="M304.213 701.013l-49.579 61.909-9.301 111.744c-1.28 15.36-13.483 27.989-29.312 29.312-17.707 1.493-33.195-11.648-34.688-29.312l-10.667-128-0.085-1.152c-0.811-10.795 3.541-21.76 12.587-29.013l75.819-60.715c11.52-9.216 28.245-9.6 40.235 0 13.867 11.093 16.128 31.36 4.992 45.227z" />
<glyph unicode="&#xe960;" d="M640 704c-84.437 0-130.048-42.667-170.667-42.667s-86.229 42.667-170.667 42.667c-156.757 0-256-102.997-256-261.291 0-281.216 151.381-421.376 298.667-421.376 85.931 0 102.528 27.136 128 27.136s42.069-27.136 128-27.136c147.285 0 298.667 140.16 298.667 421.376 0 158.293-99.243 261.291-256 261.291z" />
<glyph unicode="&#xe961;" d="M682.667-21.333h-341.333c-70.699 0-128 57.301-128 128v682.667c0 70.699 57.301 128 128 128h341.333c70.699 0 128-57.301 128-128v-682.667c0-70.699-57.301-128-128-128z" />
<glyph unicode="&#xe962;" d="M597.333 149.333c-7.936 0-162.731 0-170.667 0-23.552 0-42.667-19.115-42.667-42.667s19.115-42.667 42.667-42.667c7.936 0 162.731 0 170.667 0 23.552 0 42.667 19.115 42.667 42.667s-19.115 42.667-42.667 42.667z" />
<glyph unicode="&#xe963;" d="M958.549 691.243c-24.192 34.731-63.787 55.424-105.941 55.424h-41.941c0-29.781-1.152-58.027-2.901-85.333h44.885c14.251 0 27.691-7.040 35.968-18.859 4.437-6.4 11.051-19.584 5.035-35.925-19.627-53.291-54.656-89.771-85.547-121.899-12.544-13.056-24.747-25.856-35.413-39.168-9.472-34.645-20.011-66.005-31.232-94.123 5.035-17.963 20.821-31.36 40.363-31.36 23.552 0 42.667 19.072 42.667 42.667 0 15.872 20.907 37.632 45.099 62.848 34.901 36.309 78.293 81.493 104.107 151.552 14.165 38.485 8.661 80.085-15.147 114.176z" />
<glyph unicode="&#xe964;" d="M65.493 691.243c24.192 34.731 63.829 55.424 105.941 55.424h41.941c0-29.781 1.152-58.027 2.901-85.333h-44.843c-14.251 0-27.691-7.040-35.925-18.859-4.437-6.4-11.051-19.584-5.035-35.925 19.627-53.291 54.656-89.771 85.547-121.899 12.544-13.056 24.747-25.856 35.413-39.168 9.472-34.645 20.011-66.005 31.232-94.123-5.077-17.963-20.864-31.36-40.405-31.36-23.552 0-42.667 19.072-42.667 42.667 0 15.872-20.907 37.632-45.099 62.848-34.901 36.309-78.293 81.493-104.107 151.552-14.165 38.485-8.661 80.085 15.104 114.176z" />
<glyph unicode="&#xe965;" d="M725.333 832h-426.667c-47.147 0-85.333-38.187-85.333-85.333 0-324.395 112.597-500.779 166.571-566.741 16.043-19.627 40.149-30.592 65.536-30.592h133.163c25.344 0 49.451 10.965 65.536 30.592 53.931 65.963 166.528 242.347 166.528 566.741 0 47.147-38.187 85.333-85.333 85.333z" />
<glyph unicode="&#xe966;" d="M680.448 77.483l-14.208 42.667c-5.845 17.451-22.144 29.184-40.491 29.184h-227.499c-18.347 0-34.688-11.733-40.491-29.184l-14.208-42.667c-9.216-27.605 11.349-56.149 40.491-56.149h255.915c29.141 0 49.707 28.544 40.491 56.149z" />
<glyph unicode="&#xe967;" d="M213.333 661.333h597.333c22.613 0 43.52-6.357 61.952-16.64 9.557 17.92 23.211 33.621 40.405 45.312l-12.544 48c-17.536 67.2-86.229 107.435-153.429 89.899l-567.723-148.309c-60.928-15.915-99.2-73.856-92.8-134.613 5.931 65.152 60.075 116.352 126.805 116.352z" />
<glyph unicode="&#xe968;" d="M938.667 482.816v50.517c0 70.699-57.301 128-128 128h-597.333c-70.699 0-128-57.301-128-128v-50.517c49.621-17.621 85.333-64.512 85.333-120.149s-35.712-102.528-85.333-120.149v-50.517c0-70.699 57.301-128 128-128h597.333c70.699 0 128 57.301 128 128v50.517c-49.621 17.621-85.333 64.512-85.333 120.149s35.712 102.528 85.333 120.149z" />
<glyph unicode="&#xe969;" d="M896 704c0 47.147-38.187 85.333-85.333 85.333h-597.333c-47.147 0-85.333-38.187-85.333-85.333v-512c0-70.699 57.301-128 128-128h512c70.699 0 128 57.301 128 128v512z" />
<glyph unicode="&#xe96a;" d="M768 832h-512c-70.699 0-128-57.301-128-128v-128h768v128c0 70.699-57.301 128-128 128zM256 661.333c-23.552 0-42.667 19.115-42.667 42.667s19.115 42.667 42.667 42.667 42.667-19.115 42.667-42.667c0-23.552-19.115-42.667-42.667-42.667zM384 661.333c-23.552 0-42.667 19.115-42.667 42.667s19.115 42.667 42.667 42.667 42.667-19.115 42.667-42.667c0-23.552-19.115-42.667-42.667-42.667zM768 661.333c-7.936 0-205.397 0-213.333 0-23.552 0-42.667 19.115-42.667 42.667s19.115 42.667 42.667 42.667c7.936 0 205.397 0 213.333 0 23.552 0 42.667-19.115 42.667-42.667s-19.115-42.667-42.667-42.667z" />
<glyph unicode="&#xe96b;" d="M1022.763 235.221c1.323 21.547-15.317 41.301-38.741 44.843-97.408 14.549-110.507 82.603-174.507 82.603s-74.795-68.053-172.203-82.603c-23.424-3.499-40.064-23.253-38.741-44.843 10.027-162.773 59.221-240.085 210.944-299.221 151.765 59.093 203.221 136.448 213.248 299.221z" />
<glyph unicode="&#xe96c;" d="M768 64h-512c-70.699 0-128 57.301-128 128v469.333h768v-469.333c0-70.699-57.301-128-128-128z" />
<glyph unicode="&#xe96d;" d="M768 490.667c-7.936 0-162.731 0-170.667 0-23.552 0-42.667-19.115-42.667-42.667s19.115-42.667 42.667-42.667c7.936 0 162.731 0 170.667 0 23.552 0 42.667 19.115 42.667 42.667s-19.115 42.667-42.667 42.667z" />
<glyph unicode="&#xe96e;" d="M768 320c-7.936 0-162.731 0-170.667 0-23.552 0-42.667-19.115-42.667-42.667s19.115-42.667 42.667-42.667c7.936 0 162.731 0 170.667 0 23.552 0 42.667 19.115 42.667 42.667s-19.115 42.667-42.667 42.667z" />
<glyph unicode="&#xe96f;" d="M896 661.333h-768v42.667c0 70.699 57.301 128 128 128h512c70.699 0 128-57.301 128-128v-42.667z" />
<glyph unicode="&#xe970;" d="M426.667 234.667h-170.667c-23.552 0-42.667 19.115-42.667 42.667v170.667c0 23.552 19.115 42.667 42.667 42.667h170.667c23.552 0 42.667-19.115 42.667-42.667v-170.667c0-23.552-19.115-42.667-42.667-42.667z" />
<glyph unicode="&#xe971;" d="M459.264 864.597c37.077-37.077 48.896-90.624 52.523-125.824 2.091-20.053-14.592-36.693-34.603-34.603-35.2 3.669-88.747 15.488-125.781 52.565s-48.896 90.581-52.565 125.824c-2.091 20.053 14.592 36.693 34.603 34.603 35.243-3.669 88.789-15.488 125.824-52.565z" />
<glyph unicode="&#xe972;" d="M621.824 797.056c19.2 13.44 23.979 39.936 10.624 59.264s-40.021 24.235-59.349 10.795c-4.267-2.944-103.765-73.344-103.765-205.781 24.832 0 51.627 15.915 87.893 28.288 11.563 68.224 61.653 105.301 64.597 107.435z" />
<glyph unicode="&#xe973;" d="M810.667 405.333v-85.333c0-23.552-19.115-42.667-42.667-42.667s-42.667 19.115-42.667 42.667v85.333h-85.333v-42.667c0-23.552-19.115-42.667-42.667-42.667s-42.667 19.115-42.667 42.667v42.667h-85.333v-85.333c0-23.552-19.115-42.667-42.667-42.667s-42.667 19.115-42.667 42.667v85.333h-85.333c-23.552 0-42.667-19.115-42.667-42.667v-128c0-23.552 19.115-42.667 42.667-42.667h597.333c47.147 0 85.333 38.187 85.333 85.333v128h-170.667z" />
</font>
</defs>
</svg>
