<?xml version="1.0" standalone="no"?>
<!DOCTYPE svg PUBLIC "-//W3C//DTD SVG 1.1//EN" "http://www.w3.org/Graphics/SVG/1.1/DTD/svg11.dtd" >
<svg xmlns="http://www.w3.org/2000/svg">
<metadata>Created by Icons8</metadata>
<defs>
  <font id="Grib portalen" horiz-adv-x="1024">
    <font-face font-family="Grib portalen"
      units-per-em="1024" ascent="896"
      descent="128"
      font-weight="500" />
    <missing-glyph horiz-adv-x="0" />
    <glyph glyph-name="deviation"
      unicode="&#xF100;"
      horiz-adv-x="1024" d="M554.6666666666666 597.3333333333334A170.6666666666667 170.6666666666667 0 0 1 896 597.3333333333334A170.6666666666667 170.6666666666667 0 0 1 554.6666666666666 597.3333333333334M384 0H213.3333333333333C166.1866666666667 0 128 38.1866666666667 128 85.3333333333334V256C128 303.1466666666668 166.1866666666667 341.3333333333334 213.3333333333333 341.3333333333334H384C431.1466666666667 341.3333333333334 469.3333333333333 303.1466666666668 469.3333333333333 256V85.3333333333334C469.3333333333333 38.1866666666667 431.1466666666667 0 384 0zM810.6666666666666 0H640C592.8533333333332 0 554.6666666666666 38.1866666666667 554.6666666666666 85.3333333333334V256C554.6666666666666 303.1466666666668 592.8533333333332 341.3333333333334 640 341.3333333333334H810.6666666666666C857.8133333333333 341.3333333333334 896 303.1466666666668 896 256V85.3333333333334C896 38.1866666666667 857.8133333333333 0 810.6666666666666 0zM384 426.6666666666667H213.3333333333333C166.1866666666667 426.6666666666667 128 464.8533333333334 128 512V682.6666666666667C128 729.8133333333333 166.1866666666667 768 213.3333333333333 768H384C431.1466666666667 768 469.3333333333333 729.8133333333333 469.3333333333333 682.6666666666667V512C469.3333333333333 464.8533333333334 431.1466666666667 426.6666666666667 384 426.6666666666667z" />
    <glyph glyph-name="calendar"
      unicode="&#xF101;"
      horiz-adv-x="1024" d="M768 0H256C185.3013333333333 0 128 57.3013333333333 128 128V597.3333333333334H896V128C896 57.3013333333333 838.6986666666667 0 768 0zM768 768H256C185.3013333333333 768 128 710.6986666666667 128 640V597.3333333333334H896V640C896 710.6986666666667 838.6986666666667 768 768 768zM554.6666666666666 128A42.6666666666667 42.6666666666667 0 0 1 640 128A42.6666666666667 42.6666666666667 0 0 1 554.6666666666666 128M384 128A42.6666666666667 42.6666666666667 0 0 1 469.3333333333333 128A42.6666666666667 42.6666666666667 0 0 1 384 128M213.3333333333333 128A42.6666666666667 42.6666666666667 0 0 1 298.6666666666667 128A42.6666666666667 42.6666666666667 0 0 1 213.3333333333333 128M213.3333333333333 298.6666666666668A42.6666666666667 42.6666666666667 0 0 1 298.6666666666667 298.6666666666668A42.6666666666667 42.6666666666667 0 0 1 213.3333333333333 298.6666666666668M384 298.6666666666668A42.6666666666667 42.6666666666667 0 0 1 469.3333333333333 298.6666666666668A42.6666666666667 42.6666666666667 0 0 1 384 298.6666666666668M554.6666666666666 298.6666666666668A42.6666666666667 42.6666666666667 0 0 1 640 298.6666666666668A42.6666666666667 42.6666666666667 0 0 1 554.6666666666666 298.6666666666668M725.3333333333333 298.6666666666668A42.6666666666667 42.6666666666667 0 0 1 810.6666666666666 298.6666666666668A42.6666666666667 42.6666666666667 0 0 1 725.3333333333333 298.6666666666668M725.3333333333333 469.3333333333334A42.6666666666667 42.6666666666667 0 0 1 810.6666666666666 469.3333333333334A42.6666666666667 42.6666666666667 0 0 1 725.3333333333333 469.3333333333334M554.6666666666666 469.3333333333334A42.6666666666667 42.6666666666667 0 0 1 640 469.3333333333334A42.6666666666667 42.6666666666667 0 0 1 554.6666666666666 469.3333333333334M384 469.3333333333334A42.6666666666667 42.6666666666667 0 0 1 469.3333333333333 469.3333333333334A42.6666666666667 42.6666666666667 0 0 1 384 469.3333333333334" />
    <glyph glyph-name="news"
      unicode="&#xF102;"
      horiz-adv-x="1024" d="M768 85.3333333333334V640C768 710.6986666666667 710.6986666666667 768 640 768H213.3333333333333C142.6346666666667 768 85.3333333333333 710.6986666666667 85.3333333333333 640V128C85.3333333333333 57.3013333333333 142.6346666666667 0 213.3333333333333 0H853.3333333333333C806.1866666666666 0 768 38.1866666666667 768 85.3333333333334zM597.3333333333333 298.6666666666668H256C232.448 298.6666666666668 213.3333333333333 317.7813333333334 213.3333333333333 341.3333333333334V341.3333333333334C213.3333333333333 364.8853333333334 232.448 384 256 384H597.3333333333333C620.8853333333333 384 640 364.8853333333334 640 341.3333333333334V341.3333333333334C640 317.7813333333334 620.8853333333333 298.6666666666668 597.3333333333333 298.6666666666668zM597.3333333333333 128H256C232.448 128 213.3333333333333 147.1146666666667 213.3333333333333 170.6666666666668V170.6666666666668C213.3333333333333 194.2186666666667 232.448 213.3333333333334 256 213.3333333333334H597.3333333333333C620.8853333333333 213.3333333333334 640 194.2186666666667 640 170.6666666666668V170.6666666666668C640 147.1146666666667 620.8853333333333 128 597.3333333333333 128zM853.3333333333333 597.3333333333334H768V85.3333333333334C768 38.1866666666667 806.1866666666666 0 853.3333333333333 0H853.3333333333333C900.48 0 938.6666666666666 38.1866666666667 938.6666666666666 85.3333333333334V512C938.6666666666666 559.1466666666668 900.48 597.3333333333334 853.3333333333333 597.3333333333334zM576 597.3333333333334C559.5306666666667 597.3333333333334 293.8026666666667 597.3333333333334 277.3333333333333 597.3333333333334C242.0053333333333 597.3333333333334 213.3333333333333 568.6613333333333 213.3333333333333 533.3333333333334S242.0053333333333 469.3333333333334 277.3333333333333 469.3333333333334C293.8026666666667 469.3333333333334 559.5306666666667 469.3333333333334 576 469.3333333333334C611.328 469.3333333333334 640 498.0053333333334 640 533.3333333333334S611.328 597.3333333333334 576 597.3333333333334z" />
    <glyph glyph-name="weightlifting"
      unicode="&#xF105;"
      horiz-adv-x="1024" d="M426.6666666666667 554.6666666666667A85.3333333333333 85.3333333333333 0 0 1 597.3333333333333 554.6666666666667A85.3333333333333 85.3333333333333 0 0 1 426.6666666666667 554.6666666666667M597.3333333333333 341.3333333333334H426.6666666666667C415.36 341.3333333333334 404.48 345.8133333333334 396.5013333333333 353.8346666666667L306.0053333333333 444.3306666666667C273.7493333333333 476.544 256 519.424 256 565.0346666666667V682.6666666666667C256 706.2186666666666 275.1146666666667 725.3333333333334 298.6666666666667 725.3333333333334S341.3333333333333 706.2186666666666 341.3333333333333 682.6666666666667V565.0346666666667C341.3333333333333 542.2506666666667 350.208 520.7893333333334 366.336 504.6613333333333L444.3306666666666 426.6666666666667H579.6693333333333L657.664 504.6613333333333C673.7919999999999 520.7893333333334 682.6666666666666 542.2080000000001 682.6666666666666 565.0346666666667V682.6666666666667C682.6666666666666 706.2186666666666 701.7813333333334 725.3333333333334 725.3333333333333 725.3333333333334S768 706.2186666666666 768 682.6666666666667V565.0346666666667C768 519.4666666666667 750.2506666666666 476.5866666666667 717.9946666666666 444.3306666666667L627.4986666666666 353.8346666666667C619.52 345.8133333333334 608.64 341.3333333333334 597.3333333333333 341.3333333333334zM213.3333333333333 -42.6666666666666C195.456 -42.6666666666666 178.816 -31.3599999999999 172.8426666666667 -13.4826666666665C165.376 8.8746666666668 177.4506666666667 33.0240000000001 199.808 40.4906666666668L294.6986666666667 72.1066666666668C306.3893333333333 75.9893333333334 316.3306666666666 83.9680000000001 322.688 94.5493333333334L407.1253333333333 235.3066666666668C412.5013333333333 244.2666666666668 420.992 250.9653333333335 430.976 254.0800000000001L567.5093333333332 296.7466666666667C578.944 300.288 591.4879999999998 298.9226666666667 601.8559999999999 292.7786666666667L731.8613333333333 216.3200000000001C754.1759999999999 203.2213333333334 768 179.0293333333334 768 153.1733333333334V0C768 -23.5519999999999 748.8853333333333 -42.6666666666666 725.3333333333333 -42.6666666666666S682.6666666666666 -23.5519999999999 682.6666666666666 0V146.2613333333334L574.9333333333333 209.6213333333334L471.936 177.4506666666666L395.8613333333334 50.6453333333333C379.0506666666667 22.6133333333332 352.7253333333334 1.4933333333332 321.7066666666667 -8.8746666666667L226.8160000000001 -40.4906666666667C222.336 -41.984 217.7706666666667 -42.6666666666666 213.3333333333333 -42.6666666666666zM384 426.6666666666667V256L303.744 59.904L377.5573333333333 27.2213333333333L486.3573333333334 143.3173333333333C502.3146666666667 160.3413333333333 525.9093333333333 167.8933333333333 548.7786666666667 163.328L725.3333333333333 128L640 213.3333333333334V405.3333333333334L384 426.6666666666667zM938.6666666666666 512H896C872.448 512 853.3333333333333 531.1146666666667 853.3333333333333 554.6666666666667V810.6666666666666C853.3333333333333 834.2186666666666 872.448 853.3333333333334 896 853.3333333333334H938.6666666666666C962.2186666666666 853.3333333333334 981.3333333333331 834.2186666666666 981.3333333333331 810.6666666666666V554.6666666666667C981.3333333333331 531.1146666666667 962.2186666666666 512 938.6666666666666 512zM128 512H85.3333333333333C61.7813333333333 512 42.6666666666667 531.1146666666667 42.6666666666667 554.6666666666667V810.6666666666666C42.6666666666667 834.2186666666666 61.7813333333333 853.3333333333334 85.3333333333333 853.3333333333334H128C151.552 853.3333333333334 170.6666666666667 834.2186666666666 170.6666666666667 810.6666666666666V554.6666666666667C170.6666666666667 531.1146666666667 151.552 512 128 512zM170.6666666666667 725.3333333333334H853.3333333333333V640H170.6666666666667V725.3333333333334z" />
    <glyph glyph-name="settings"
      unicode="&#xF107;"
      horiz-adv-x="1024" d="M682.6666666666666 88.4053333333334C711.5946666666666 105.0880000000001 744.9173333333333 106.496 773.7599999999999 95.4026666666667C797.8239999999998 86.1440000000001 825.3439999999998 93.8240000000001 841.6853333333331 113.7493333333334C870.8266666666665 149.2906666666667 894.3359999999999 189.6106666666667 910.8479999999998 233.4293333333334C920.2773333333332 258.4746666666668 911.3599999999998 285.9946666666667 890.9226666666665 303.3173333333334C867.9253333333332 322.6880000000001 853.3333333333333 351.5306666666668 853.3333333333333 384C853.3333333333333 416.4693333333334 867.9253333333332 445.312 890.8799999999999 464.768C911.3173333333332 482.0906666666667 920.2773333333332 509.5680000000001 910.8053333333332 534.6560000000001C894.2933333333332 578.432 870.8266666666665 618.7946666666667 841.6426666666666 654.336C825.3013333333333 674.2613333333334 797.7813333333334 681.9413333333334 773.7173333333333 672.6826666666667C744.9173333333333 661.504 711.5946666666666 662.912 682.6666666666666 679.5946666666666C653.6533333333333 696.3626666666667 635.7333333333333 724.6506666666667 631.04 755.328C627.1999999999999 780.4159999999999 607.3173333333332 800.4693333333333 582.2719999999999 804.736C559.4026666666666 808.6186666666666 535.9359999999999 810.6666666666666 512 810.6666666666666S464.5973333333333 808.6186666666666 441.728 804.736C416.6826666666667 800.4693333333333 396.8426666666667 780.4159999999999 392.9600000000001 755.328C388.2666666666667 724.6506666666667 370.3466666666667 696.3626666666667 341.3333333333333 679.5946666666666C312.4053333333333 662.912 279.0826666666667 661.504 250.24 672.64C226.176 681.8986666666667 198.656 674.2186666666666 182.3146666666667 654.2933333333333C153.1733333333333 618.752 129.7066666666667 578.432 113.1946666666667 534.6133333333333C103.7226666666667 509.568 112.6826666666667 482.048 133.12 464.768C156.0746666666667 445.312 170.6666666666667 416.4693333333334 170.6666666666667 384C170.6666666666667 351.5306666666668 156.0746666666667 322.6880000000001 133.12 303.232C112.6826666666667 285.9093333333333 103.7226666666667 258.432 113.1946666666667 233.3440000000001C129.7066666666667 189.568 153.1733333333333 149.2053333333333 182.3573333333333 113.664C198.6986666666667 93.7386666666666 226.2186666666667 86.0586666666667 250.2826666666667 95.3173333333333C279.0826666666667 106.496 312.4053333333333 105.0880000000001 341.3333333333333 88.4053333333334C370.3466666666667 71.6373333333334 388.2666666666667 43.3493333333333 392.9600000000001 12.672C396.8 -12.4159999999999 416.6826666666667 -32.4693333333332 441.7280000000001 -36.736C464.5973333333333 -40.6186666666667 488.064 -42.6666666666666 512 -42.6666666666666S559.4026666666666 -40.6186666666667 582.2719999999999 -36.736C607.3173333333333 -32.5119999999999 627.1999999999999 -12.4586666666667 631.04 12.672C635.7333333333333 43.3493333333333 653.6533333333333 71.6373333333334 682.6666666666666 88.4053333333334zM512 554.6666666666667C417.7493333333333 554.6666666666667 341.3333333333333 478.2506666666667 341.3333333333333 384S417.7493333333333 213.3333333333334 512 213.3333333333334S682.6666666666666 289.7493333333334 682.6666666666666 384S606.2506666666666 554.6666666666667 512 554.6666666666667z" />
    <glyph glyph-name="schedule"
      unicode="&#xF108;"
      horiz-adv-x="1024" d="M554.6666666666666 128A42.6666666666667 42.6666666666667 0 0 1 640 128A42.6666666666667 42.6666666666667 0 0 1 554.6666666666666 128M384 128A42.6666666666667 42.6666666666667 0 0 1 469.3333333333333 128A42.6666666666667 42.6666666666667 0 0 1 384 128M213.3333333333333 128A42.6666666666667 42.6666666666667 0 0 1 298.6666666666667 128A42.6666666666667 42.6666666666667 0 0 1 213.3333333333333 128M213.3333333333333 298.6666666666668A42.6666666666667 42.6666666666667 0 0 1 298.6666666666667 298.6666666666668A42.6666666666667 42.6666666666667 0 0 1 213.3333333333333 298.6666666666668M384 298.6666666666668A42.6666666666667 42.6666666666667 0 0 1 469.3333333333333 298.6666666666668A42.6666666666667 42.6666666666667 0 0 1 384 298.6666666666668M554.6666666666666 298.6666666666668A42.6666666666667 42.6666666666667 0 0 1 640 298.6666666666668A42.6666666666667 42.6666666666667 0 0 1 554.6666666666666 298.6666666666668M725.3333333333333 298.6666666666668A42.6666666666667 42.6666666666667 0 0 1 810.6666666666666 298.6666666666668A42.6666666666667 42.6666666666667 0 0 1 725.3333333333333 298.6666666666668M725.3333333333333 469.3333333333334A42.6666666666667 42.6666666666667 0 0 1 810.6666666666666 469.3333333333334A42.6666666666667 42.6666666666667 0 0 1 725.3333333333333 469.3333333333334M554.6666666666666 469.3333333333334A42.6666666666667 42.6666666666667 0 0 1 640 469.3333333333334A42.6666666666667 42.6666666666667 0 0 1 554.6666666666666 469.3333333333334M384 469.3333333333334A42.6666666666667 42.6666666666667 0 0 1 469.3333333333333 469.3333333333334A42.6666666666667 42.6666666666667 0 0 1 384 469.3333333333334M408.6613333333333 597.3333333333334C375.7226666666666 522.0693333333334 300.7573333333334 469.3333333333334 213.3333333333333 469.3333333333334C182.9546666666667 469.3333333333334 154.1546666666667 475.904 128 487.3386666666667V128C128 57.3013333333333 185.3013333333333 0 256 0H768C838.6986666666667 0 896 57.3013333333333 896 128V597.3333333333334H408.6613333333333zM768 768H408.6613333333333C420.096 741.8453333333333 426.6666666666667 713.0453333333334 426.6666666666667 682.6666666666667S420.096 623.488 408.6613333333333 597.3333333333334C375.7226666666666 522.0693333333334 300.7573333333334 469.3333333333334 213.3333333333333 469.3333333333334C182.9546666666667 469.3333333333334 154.1546666666667 475.904 128 487.3386666666667V396.5440000000001C155.0506666666667 388.48 183.68 384 213.3333333333333 384C348.5866666666667 384 462.7199999999999 473.984 499.456 597.3333333333334H896V640C896 710.6986666666667 838.6986666666667 768 768 768zM0 682.6666666666667A213.3333333333333 213.3333333333333 0 0 1 426.6666666666667 682.6666666666667A213.3333333333333 213.3333333333333 0 0 1 0 682.6666666666667M304.2133333333333 637.0133333333333L254.6346666666667 698.9226666666667L245.3333333333333 810.6666666666666C244.0533333333333 826.0266666666666 231.8506666666667 838.656 216.0213333333333 839.9786666666666C198.3146666666667 841.472 182.8266666666667 828.3306666666667 181.3333333333333 810.6666666666666L170.6666666666667 682.6666666666667L170.5813333333333 681.5146666666667C169.7706666666667 670.72 174.1226666666667 659.7546666666667 183.168 652.5013333333334L258.9866666666667 591.7866666666666C270.5066666666667 582.5706666666667 287.232 582.1866666666667 299.2213333333333 591.7866666666666C313.088 602.88 315.3493333333334 623.1466666666668 304.2133333333333 637.0133333333333z" />
    <glyph glyph-name="exercise"
      unicode="&#xF109;"
      horiz-adv-x="1024" d="M725.3333333333333 704.0426666666667C725.3333333333333 645.12 773.0773333333333 597.3333333333334 831.9573333333333 597.3333333333334C890.9653333333333 597.3333333333334 938.6666666666666 645.12 938.6666666666666 704.0426666666667C938.6666666666666 762.88 890.9653333333333 810.6666666666666 831.9573333333333 810.6666666666666C773.0773333333333 810.6666666666666 725.3333333333333 762.88 725.3333333333333 704.0426666666667zM543.5306666666667 170.6666666666668H298.6666666666667C275.1146666666667 170.6666666666668 256 189.7386666666666 256 213.3333333333334S275.1146666666667 256 298.6666666666667 256H534.3146666666667L472.3626666666667 410.8373333333334C463.616 432.7253333333333 474.24 457.5573333333334 496.128 466.304C518.1013333333333 475.0506666666667 542.848 464.384 551.5946666666666 442.4960000000001L616.96 279.1253333333334C626.7306666666666 254.7200000000001 623.744 227.1146666666667 608.9813333333334 205.3546666666666C594.304 183.6373333333334 569.8133333333333 170.6666666666668 543.5306666666667 170.6666666666668zM537.728 247.4666666666667H538.1546666666666H537.728zM896 383.2746666666667H768C752.0426666666667 383.2746666666667 737.4506666666666 392.1493333333334 730.1119999999999 406.3146666666667L642.944 574.72L627.712 595.4133333333334L503.8933333333333 679.296L351.7013333333333 641.28C328.8746666666667 635.5626666666667 305.7066666666667 649.4293333333334 299.9466666666667 672.3413333333333C294.2293333333334 695.168 308.1386666666667 718.336 330.9653333333333 724.0533333333333L501.6319999999999 766.72C513.3653333333333 769.792 525.824 767.5306666666667 535.8933333333333 760.6613333333333L681.6 662.0160000000001C685.6533333333333 659.2853333333334 689.152 655.8720000000001 692.0533333333334 651.9893333333333L713.6426666666667 622.6346666666667C714.9653333333333 620.8426666666667 716.1600000000001 618.9226666666667 717.184 616.96L793.984 468.6080000000001H896C919.552 468.6080000000001 938.6666666666666 449.5360000000001 938.6666666666666 425.9413333333334S919.552 383.2746666666667 896 383.2746666666667zM652.4586666666667 664.4053333333334L719.3173333333334 570.1546666666667L765.9093333333333 471.5093333333334L732.5866666666667 401.92L673.5786666666667 482.304L590.4213333333332 393.3013333333334L621.4399999999999 264.0213333333334L562.6026666666667 192.2986666666668L298.6666666666667 256L487.6373333333333 279.8506666666667L407.2106666666667 381.1413333333334L415.9573333333334 524.1173333333334L524.0746666666666 631.5946666666666L474.9226666666667 682.6666666666667L459.3919999999999 725.3333333333334zM384 448A106.6666666666667 106.6666666666667 0 0 1 597.3333333333333 448A106.6666666666667 106.6666666666667 0 0 1 384 448M512 576A106.6666666666667 106.6666666666667 0 0 1 725.3333333333333 576A106.6666666666667 106.6666666666667 0 0 1 512 576M426.624 -42.6666666666666C419.1573333333334 -42.6666666666666 411.5626666666667 -40.7039999999999 404.6933333333334 -36.5653333333332C384.4693333333334 -24.448 377.9413333333333 1.7493333333334 390.0586666666667 21.9733333333334L518.0586666666667 235.3066666666668C530.176 255.5306666666668 556.3733333333333 262.1013333333334 576.5973333333334 249.9413333333335C596.8213333333333 237.8240000000001 603.3493333333333 211.6266666666668 591.232 191.4026666666667L463.232 -21.9306666666666C455.2533333333333 -35.2853333333334 441.1306666666667 -42.6666666666666 426.624 -42.6666666666666zM389.376 20.3093333333334L473.3866666666667 225.1946666666668L549.9306666666666 182.1013333333334L414.208 5.1626666666666zM256 512H42.6666666666667C19.1146666666667 512 0 531.072 0 554.6666666666667S19.1146666666667 597.3333333333334 42.6666666666667 597.3333333333334H256C279.552 597.3333333333334 298.6666666666667 578.2613333333334 298.6666666666667 554.6666666666667S279.552 512 256 512zM256 341.3333333333334H85.3333333333333C61.7813333333333 341.3333333333334 42.6666666666667 360.4053333333334 42.6666666666667 384S61.7813333333333 426.6666666666667 85.3333333333333 426.6666666666667H256C279.552 426.6666666666667 298.6666666666667 407.5946666666668 298.6666666666667 384S279.552 341.3333333333334 256 341.3333333333334z" />
    <glyph glyph-name="training"
      unicode="&#xF10A;"
      horiz-adv-x="1024" d="M768 213.3333333333334H256C185.3013333333333 213.3333333333334 128 270.6346666666667 128 341.3333333333334V640C128 710.6986666666667 185.3013333333333 768 256 768H768C838.6986666666667 768 896 710.6986666666667 896 640V341.3333333333334C896 270.6346666666667 838.6986666666667 213.3333333333334 768 213.3333333333334zM170.6666666666667 704A106.6666666666667 106.6666666666667 0 0 1 384 704A106.6666666666667 106.6666666666667 0 0 1 170.6666666666667 704M594.304 554.6666666666667H213.3333333333333C166.1866666666667 554.6666666666667 128 516.48 128 469.3333333333334L128 4.6933333333334C128 -18.6880000000001 144.8106666666667 -39.8933333333334 168.1066666666667 -42.368C193.152 -45.056 215.0826666666667 -27.008 217.8133333333333 -2.5600000000001L240.256 199.2533333333333C241.1093333333333 207.232 247.8933333333333 213.3333333333334 256 213.3333333333334H256C264.1066666666667 213.3333333333334 270.8906666666667 207.232 271.7866666666667 199.2106666666667L293.9733333333334 -0.5546666666665C296.448 -22.7413333333332 313.9413333333333 -41.2586666666666 336.2133333333334 -42.5813333333332C362.368 -44.1173333333332 384 -23.424 384 2.3466666666667V413.4826666666667C384 424.5333333333333 392.1493333333334 433.92 403.072 435.4986666666666L598.656 463.4453333333333C620.7573333333332 466.6026666666666 638.848 484.4373333333333 639.9146666666666 506.7093333333332C641.1946666666666 532.9920000000001 620.288 554.6666666666667 594.304 554.6666666666667zM582.528 213.3333333333334L654.592 -2.9013333333332C662.528 -26.6666666666666 684.7573333333332 -42.6666666666666 709.8026666666666 -42.6666666666666H709.8026666666666C749.4826666666665 -42.6666666666666 777.5573333333333 -3.7546666666667 764.9706666666666 33.8773333333334L705.152 213.3333333333334H582.528z" />
    <glyph glyph-name="renew"
      unicode="&#xF10B;"
      horiz-adv-x="1024" d="M938.6666666666666 512V197.9733333333334C907.52 233.3866666666668 861.8666666666666 256 810.6666666666666 256C795.7333333333332 256 781.6533333333333 254.2933333333334 768 250.4533333333334V597.3333333333334H853.3333333333333C900.2666666666667 597.3333333333334 938.6666666666666 558.9333333333334 938.6666666666666 512zM810.6666666666666 256C795.8613333333333 256 781.696 253.5253333333334 768 249.9840000000001V640C768 710.6986666666667 710.6986666666667 768 640 768H256C185.3013333333333 768 128 710.6986666666667 128 640V128C128 57.3013333333333 185.3013333333333 0 256 0H663.68C693.248 -50.8159999999999 747.6479999999999 -85.3333333333333 810.6666666666666 -85.3333333333333C904.9173333333334 -85.3333333333333 981.3333333333331 -8.9173333333333 981.3333333333331 85.3333333333334C981.3333333333331 179.5840000000001 904.9173333333334 256 810.6666666666666 256zM541.0133333333333 213.3333333333334C528.2133333333333 186.88 519.2533333333333 158.2933333333334 515.4133333333333 128H298.6666666666667C275.2 128 256 147.2000000000001 256 170.6666666666668S275.2 213.3333333333334 298.6666666666667 213.3333333333334H541.0133333333333zM576 597.3333333333334C559.5306666666667 597.3333333333334 336.4693333333334 597.3333333333334 320 597.3333333333334C284.672 597.3333333333334 256 568.6613333333333 256 533.3333333333334S284.672 469.3333333333334 320 469.3333333333334C336.4693333333334 469.3333333333334 559.5306666666667 469.3333333333334 576 469.3333333333334C611.328 469.3333333333334 640 498.0053333333334 640 533.3333333333334S611.328 597.3333333333334 576 597.3333333333334zM640 341.3333333333334C640 337.0666666666667 639.1466666666666 332.3733333333334 637.8666666666666 328.5333333333333C625.0666666666666 320 613.5466666666666 310.1866666666667 602.4533333333333 299.0933333333334C600.7466666666667 298.6666666666668 599.04 298.6666666666668 597.3333333333333 298.6666666666668H298.6666666666667C275.2 298.6666666666668 256 317.8666666666667 256 341.3333333333334S275.2 384 298.6666666666667 384H597.3333333333333C620.8 384 640 364.8000000000001 640 341.3333333333334zM810.6666666666666 298.6666666666668C692.9066666666668 298.6666666666668 597.3333333333333 203.0933333333333 597.3333333333333 85.3333333333334S692.9066666666668 -128 810.6666666666666 -128S1024 -32.4266666666665 1024 85.3333333333334S928.4266666666668 298.6666666666668 810.6666666666666 298.6666666666668zM945.0666666666666 54.1866666666667C942.08 40.96 936.9599999999998 28.1600000000001 930.1333333333332 16.2133333333334C904.533333333333 -27.7333333333333 858.0266666666664 -52.48 810.2399999999999 -52.48C787.1999999999999 -52.48 763.3066666666665 -46.5066666666667 741.5466666666666 -34.1333333333333C709.5466666666666 -15.7866666666666 686.9333333333332 14.0799999999999 677.5466666666666 49.4933333333333C667.7333333333332 85.3333333333334 672.8533333333332 122.4533333333334 691.1999999999999 154.4533333333334C722.3466666666666 208.6400000000001 785.0666666666666 232.5333333333334 843.0933333333332 218.8800000000001L848.2133333333333 229.5466666666668C856.3199999999999 245.3333333333334 878.9333333333332 245.3333333333334 886.6133333333332 229.1200000000001L916.9066666666666 167.2533333333335C922.8799999999998 154.8800000000001 915.6266666666666 139.9466666666667 901.5466666666666 136.96L834.1333333333332 123.7333333333335C816.6399999999999 120.3200000000002 802.9866666666665 138.2400000000001 811.0933333333332 154.0266666666669L813.2266666666666 158.7200000000002C786.7733333333332 159.5733333333335 760.7466666666666 146.7733333333334 746.6666666666666 122.4533333333334C736.8533333333332 105.3866666666668 734.2933333333333 85.3333333333334 739.4133333333332 66.1333333333334C744.5333333333333 46.9333333333334 756.4799999999998 31.1466666666668 773.5466666666666 21.3333333333334C808.9599999999998 0.8533333333334 854.1866666666666 13.2266666666667 874.6666666666666 48.2133333333334C878.5066666666667 54.6133333333332 881.0666666666666 61.4399999999999 882.7733333333333 68.6933333333334C887.0400000000001 86.1866666666667 904.1066666666666 96.8533333333334 921.1733333333332 92.5866666666666C938.6666666666666 88.7466666666667 949.3333333333331 71.2533333333335 945.0666666666666 54.1866666666667z" />
    <glyph glyph-name="stage"
      unicode="&#xF10C;"
      horiz-adv-x="1024" d="M896 256H853.3333333333333C853.3333333333333 307.6693333333334 853.3333333333333 364.1173333333334 853.3333333333333 384C853.3333333333333 572.5013333333334 700.5013333333333 725.3333333333334 512 725.3333333333334S170.6666666666667 572.5013333333334 170.6666666666667 384C170.6666666666667 364.1173333333334 170.6666666666667 307.6693333333334 170.6666666666667 256H128L85.3333333333333 128H938.6666666666666L896 256zM85.3333333333333 128H938.6666666666666V85.3333333333334C938.6666666666666 38.1866666666667 900.48 0 853.3333333333333 0H170.6666666666667C123.52 0 85.3333333333333 38.1866666666667 85.3333333333333 85.3333333333334V128zM896 256H810.6666666666666V384C810.6666666666666 548.6506666666667 676.6506666666667 682.6666666666667 512 682.6666666666667S213.3333333333333 548.6506666666667 213.3333333333333 384V256H128V384C128 595.7546666666667 300.2453333333333 768 512 768S896 595.7546666666667 896 384V256zM725.3333333333333 256H640V384C640 454.5706666666667 582.5706666666666 512 512 512S384 454.5706666666667 384 384V256H298.6666666666667V384C298.6666666666667 501.632 394.368 597.3333333333334 512 597.3333333333334S725.3333333333333 501.632 725.3333333333333 384V256zM554.6666666666666 256C554.6666666666666 256 554.6666666666666 379.7333333333334 554.6666666666666 384C554.6666666666666 409.6 537.5999999999999 426.6666666666667 512 426.6666666666667S469.3333333333333 409.6 469.3333333333333 384C469.3333333333333 379.7333333333334 469.3333333333333 256 469.3333333333333 256H554.6666666666666z" />
    <glyph glyph-name="left-arrow"
      unicode="&#xF10D;"
      horiz-adv-x="1024" d="M213.3333333333333 298.6666666666668H938.6666666666666C985.8133333333332 298.6666666666668 1024 336.8533333333334 1024 384L1024 384C1024 431.1466666666667 985.8133333333332 469.3333333333334 938.6666666666666 469.3333333333334H213.3333333333333V298.6666666666668zM256 567.2106666666666C256 593.4506666666666 224.3413333333333 606.6346666666667 205.7386666666667 588.16L30.6346666666667 414.2933333333333C13.7813333333333 397.6106666666667 13.7813333333333 370.3466666666667 30.6346666666667 353.664L205.7386666666667 179.7973333333333C224.3413333333333 161.3653333333334 256 174.592 256 200.7893333333334V567.2106666666666z" />
    <glyph glyph-name="help"
      unicode="&#xF10E;"
      horiz-adv-x="1024" d="M85.3333333333333 384A426.6666666666667 426.6666666666667 0 0 1 938.6666666666666 384A426.6666666666667 426.6666666666667 0 0 1 85.3333333333333 384M507.0079999999999 299.8186666666667H506.752C478.1653333333333 299.8186666666667 456.1066666666666 325.6320000000001 461.0133333333333 353.7920000000001C475.9466666666666 439.68 542.8053333333332 442.6666666666667 542.8053333333332 496C542.8053333333332 510.8053333333334 540.2453333333333 543.9573333333334 504.5759999999999 543.9573333333334C485.2906666666666 543.9573333333334 473.9413333333333 531.6266666666668 467.328 518.4853333333334C458.4106666666667 500.6933333333334 437.8453333333333 491.9466666666667 418.2613333333333 495.4026666666667L418.2613333333333 495.4026666666667C388.5653333333333 500.6933333333333 370.3466666666667 532.5226666666667 382.9333333333333 559.9146666666667C400.9386666666667 599.04 437.8026666666666 640 510.8053333333333 640C629.2479999999999 640 645.1199999999999 547.2426666666668 645.1199999999999 503.6373333333333C645.1199999999999 400.5546666666667 568.3626666666667 396.7146666666667 552.4479999999999 337.3226666666667C546.688 315.904 529.1946666666666 299.8186666666667 507.0079999999999 299.8186666666667zM568.5333333333333 190.592C568.5333333333333 173.0133333333333 563.1146666666666 158.1653333333333 552.2346666666666 146.0906666666667C541.3119999999999 134.0586666666667 527.0186666666666 128 509.4399999999999 128C491.776 128 477.5253333333333 134.0586666666667 466.6453333333333 146.0906666666667C455.7653333333333 158.1653333333334 450.2613333333333 173.0133333333333 450.2613333333333 190.592C450.2613333333333 207.7866666666666 455.7653333333333 222.592 466.6453333333333 235.1786666666667C477.5253333333333 247.68 491.776 253.9093333333333 509.4399999999999 253.9093333333333C527.0186666666666 253.9093333333333 541.3119999999999 247.68 552.2346666666666 235.1786666666667C563.1146666666666 222.5920000000001 568.5333333333333 207.744 568.5333333333333 190.592z" />
    <glyph glyph-name="notification"
      unicode="&#xF10F;"
      horiz-adv-x="1024" d="M384 42.6666666666667C384 -28.0319999999999 441.3013333333334 -85.3333333333333 512 -85.3333333333333S640 -28.0319999999999 640 42.6666666666667H384zM810.6666666666666 440.8746666666667L810.6666666666666 499.456C810.6666666666666 662.9973333333334 684.672 805.5893333333333 521.1733333333333 810.496C352.0426666666666 815.616 213.3333333333333 680.0213333333334 213.3333333333333 512V440.8746666666667C213.3333333333333 376.2346666666668 192.384 313.3866666666668 153.6 261.6746666666667L104.5333333333333 196.2666666666668C92.0746666666667 179.6693333333333 85.3333333333333 159.4453333333334 85.3333333333333 138.6666666666668V138.6666666666668C85.3333333333333 85.6320000000001 128.2986666666667 42.6666666666667 181.3333333333333 42.6666666666667H842.6666666666666C895.7013333333332 42.6666666666667 938.6666666666666 85.6320000000001 938.6666666666666 138.6666666666668V138.6666666666668C938.6666666666666 159.4453333333334 931.9253333333332 179.6693333333333 919.4666666666666 196.2666666666668L870.4000000000001 261.6746666666668C831.616 313.3866666666668 810.6666666666666 376.2773333333335 810.6666666666666 440.8746666666667z" />
    <glyph glyph-name="repeat"
      unicode="&#xF110;"
      horiz-adv-x="1024" d="M908.0746666666666 670.2933333333333L775.6373333333333 801.4933333333333C756.992 819.968 725.3333333333333 806.7413333333334 725.3333333333333 780.544V725.3333333333334H384C242.6026666666667 725.3333333333334 128 610.7306666666667 128 469.3333333333334C128 422.2293333333334 166.1866666666667 384 213.3333333333333 384S298.6666666666667 422.2293333333334 298.6666666666667 469.3333333333334C298.6666666666667 516.48 336.8533333333333 554.6666666666667 384 554.6666666666667H725.3333333333333V499.456C725.3333333333333 473.216 756.992 460.032 775.5946666666666 478.5066666666667L908.032 609.7066666666667C924.928 626.3893333333333 924.928 653.6106666666667 908.0746666666666 670.2933333333333zM140.6293333333333 97.1093333333333L273.0666666666667 -34.0906666666666C291.712 -52.5226666666665 323.328 -39.3386666666667 323.328 -13.1413333333332V42.0693333333334H664.6613333333332C806.0586666666666 42.0693333333334 920.6613333333332 156.672 920.6613333333332 298.0693333333334C920.6613333333332 345.1733333333334 882.4746666666666 383.4026666666668 835.328 383.4026666666668S749.9946666666666 345.1733333333334 749.9946666666666 298.0693333333334C749.9946666666666 250.9226666666667 711.808 212.7360000000001 664.6613333333332 212.7360000000001H323.328V267.9466666666667C323.328 294.1866666666667 291.6693333333333 307.3706666666667 273.0666666666666 288.8960000000001L140.6293333333333 157.6960000000002C123.776 141.0560000000001 123.776 113.8346666666666 140.6293333333333 97.1093333333333z" />
    <glyph glyph-name="star"
      unicode="&#xF111;"
      horiz-adv-x="1024" d="M456.6186666666666 777.344C467.4986666666667 797.824 488.7893333333333 810.6666666666666 512 810.6666666666666S556.5013333333333 797.824 567.3813333333333 777.344L672.4693333333332 579.1573333333333C673.664 576.8533333333334 675.4133333333333 574.8906666666667 677.5039999999999 573.3546666666666C679.5946666666666 571.8186666666667 682.0266666666666 570.7946666666667 684.5866666666666 570.3679999999999L905.5146666666666 531.6693333333333C928.384 527.6586666666667 947.1146666666666 511.36 954.3253333333332 489.3013333333333C961.4933333333332 467.2426666666667 955.9039999999998 443.008 939.7333333333332 426.3253333333332L783.7439999999999 265.1306666666666C781.9519999999999 263.2533333333332 780.5866666666666 260.992 779.776 258.56C778.9653333333333 256.0853333333332 778.752 253.4826666666666 779.0933333333334 250.8799999999999L810.5386666666666 28.8C813.7813333333334 5.8453333333332 804.096 -17.0666666666667 785.3226666666666 -30.72C766.5493333333332 -44.3733333333334 741.8026666666666 -46.5066666666668 720.9386666666666 -36.3093333333334L519.4666666666665 62.2506666666666C517.1626666666666 63.4026666666667 514.6026666666667 64 512 64S506.8373333333333 63.4026666666667 504.4906666666666 62.2933333333334L303.0186666666666 -36.2666666666665C282.1546666666667 -46.4639999999999 257.408 -44.2879999999998 238.6346666666667 -30.6773333333332C219.8613333333333 -17.0239999999999 210.176 5.8453333333335 213.4186666666667 28.8426666666668L244.864 250.9226666666669C245.248 253.4826666666668 244.992 256.1280000000002 244.1813333333334 258.6026666666668C243.3706666666667 261.0773333333334 242.048 263.3386666666668 240.2133333333333 265.1733333333334L84.224 426.3680000000001C68.096 443.0506666666668 62.464 467.2853333333334 69.632 489.3440000000001C76.8 511.4026666666667 95.5733333333333 527.7013333333334 118.4426666666667 531.7120000000001L339.3706666666667 570.4106666666668C341.9306666666667 570.8800000000001 344.3626666666667 571.9040000000001 346.4533333333333 573.3973333333334C348.544 574.9333333333334 350.2933333333333 576.8960000000001 351.488 579.2L456.6186666666666 777.344z" />
    <glyph glyph-name="movie-ticket"
      unicode="&#xF112;"
      horiz-adv-x="1024" d="M213.3333333333333 725.3333333333334C142.6346666666667 725.3333333333334 85.3333333333333 668.032 85.3333333333333 597.3333333333334V504.1493333333333C134.9546666666667 486.528 170.6666666666667 439.6373333333334 170.6666666666667 384S134.9546666666667 281.472 85.3333333333333 263.8506666666667V170.6666666666668C85.3333333333333 99.9680000000001 142.6346666666667 42.6666666666667 213.3333333333333 42.6666666666667H725.3333333333333V725.3333333333334H213.3333333333333zM938.6666666666666 170.6666666666668V263.8506666666667C889.0453333333332 281.4720000000001 853.3333333333333 328.3626666666668 853.3333333333333 384S889.0453333333332 486.528 938.6666666666666 504.1493333333333V597.3333333333334C938.6666666666666 668.032 881.3653333333333 725.3333333333334 810.6666666666666 725.3333333333334H725.3333333333333V42.6666666666667H810.6666666666666C881.3653333333333 42.6666666666667 938.6666666666666 99.9680000000001 938.6666666666666 170.6666666666668zM417.408 534.7413333333334C421.5893333333334 542.592 429.7386666666667 547.4986666666666 438.6133333333333 547.4986666666666S455.6799999999999 542.592 459.8186666666666 534.7413333333334L500.096 458.7946666666667C500.5653333333333 457.8986666666667 501.2053333333333 457.1733333333333 502.016 456.576C502.8266666666667 455.9786666666668 503.7653333333333 455.5946666666667 504.7466666666667 455.4240000000001L589.3973333333333 440.576C598.144 439.0400000000001 605.3546666666666 432.8106666666667 608.0853333333333 424.3200000000001C610.816 415.872 608.6826666666666 406.5706666666667 602.496 400.1706666666667L542.72 338.3893333333333C542.0373333333333 337.664 541.5253333333333 336.8106666666667 541.184 335.8720000000001C540.8853333333334 334.9333333333334 540.8 333.9093333333334 540.928 332.928L552.96 247.808C554.1973333333333 239.0186666666667 550.4853333333333 230.2293333333334 543.3173333333333 224.9813333333334C536.1066666666666 219.7333333333334 526.6346666666666 218.9226666666667 518.656 222.848L441.4720000000001 260.608C440.576 261.0346666666667 439.5946666666667 261.2906666666667 438.6133333333334 261.2906666666667S436.6506666666667 261.0773333333333 435.7546666666667 260.6506666666667L358.5706666666668 222.8906666666667C350.5920000000001 218.9653333333333 341.0773333333334 219.8186666666667 333.9093333333334 225.024C326.6986666666667 230.272 322.9866666666667 239.0186666666666 324.2666666666667 247.8506666666667L336.2986666666667 332.9706666666666C336.4266666666668 333.952 336.3413333333334 334.976 336.0426666666667 335.9146666666667C335.7440000000001 336.8533333333334 335.2320000000001 337.7493333333333 334.5066666666667 338.432L274.7306666666667 400.2133333333333C268.5440000000001 406.6133333333334 266.4106666666667 415.872 269.1413333333334 424.3626666666667C271.8720000000001 432.8106666666667 279.0826666666667 439.04 287.8293333333334 440.6186666666667L372.48 455.4666666666667C373.4613333333333 455.6373333333333 374.4 456.0213333333334 375.2106666666667 456.6186666666667C376.0213333333334 457.216 376.6613333333334 457.9413333333334 377.1306666666667 458.8373333333333L417.408 534.7413333333334z" />
    <glyph glyph-name="multiple-stars"
      unicode="&#xF113;"
      horiz-adv-x="1024" d="M305.3653333333333 490.3253333333334C312.4053333333333 503.6373333333333 326.272 512 341.3333333333333 512C356.3946666666667 512 370.2613333333334 503.6373333333333 377.344 490.3253333333334L445.6533333333333 361.5146666666667C446.4213333333334 360.0213333333334 447.5733333333333 358.7413333333334 448.9386666666667 357.7600000000001S451.8826666666667 356.0960000000001 453.5466666666667 355.8400000000002L597.1626666666666 330.6666666666668C612.0106666666667 328.0640000000001 624.2133333333334 317.4826666666668 628.9066666666666 303.1466666666668C633.5573333333333 288.8106666666668 629.9306666666666 273.0666666666669 619.4346666666667 262.2293333333335L518.0586666666667 157.4400000000001C516.9066666666668 156.2026666666668 516.0106666666667 154.7520000000002 515.4986666666666 153.1733333333334C514.9866666666667 151.552 514.816 149.8879999999999 515.072 148.1813333333333L535.5093333333333 3.84C537.5999999999999 -11.0933333333334 531.328 -25.984 519.1253333333333 -34.8586666666666S490.8373333333333 -45.0986666666665 477.2693333333333 -38.4853333333333L346.3253333333334 25.5573333333334C344.704 26.2826666666667 343.04 26.6666666666667 341.3333333333333 26.6666666666667S337.9626666666667 26.2826666666667 336.4693333333334 25.5573333333334L205.5253333333333 -38.4853333333333C191.9573333333334 -45.0986666666668 175.872 -43.6906666666666 163.6693333333333 -34.8586666666666C151.4666666666667 -25.984 145.152 -11.136 147.2853333333334 3.84L167.7226666666667 148.1813333333333C167.9786666666667 149.8453333333334 167.808 151.552 167.296 153.1733333333334S165.9306666666667 156.2453333333333 164.736 157.4400000000001L63.36 262.2293333333335C52.864 273.0666666666667 49.2373333333334 288.8106666666668 53.888 303.1466666666668C58.5386666666667 317.4826666666668 70.7413333333334 328.0640000000001 85.632 330.6666666666668L229.2480000000001 355.8400000000001C230.9120000000001 356.1386666666667 232.4906666666667 356.8213333333333 233.856 357.76C235.2213333333334 358.7413333333334 236.3306666666667 360.0213333333334 237.1413333333334 361.5146666666667L305.3653333333333 490.3253333333334zM577.9626666666666 799.0186666666666C581.76 806.1866666666667 589.2266666666667 810.6666666666666 597.3333333333333 810.6666666666666S612.9066666666666 806.1866666666667 616.704 799.0186666666666L653.4826666666667 729.6426666666666C653.9093333333333 728.832 654.5066666666667 728.1493333333333 655.232 727.5946666666666S656.8106666666667 726.6986666666667 657.7066666666667 726.5706666666667L735.0186666666666 713.0453333333334C743.04 711.6373333333333 749.568 705.9200000000001 752.0853333333332 698.1973333333333S752.64 681.984 746.9653333333332 676.1386666666667L692.3519999999999 619.7333333333333C691.7119999999998 619.0933333333334 691.2426666666665 618.2826666666667 690.9439999999997 617.4293333333333C690.645333333333 616.576 690.6026666666664 615.6373333333333 690.6879999999998 614.7413333333334L701.6959999999997 537.0026666666666C702.8479999999997 528.9813333333333 699.4346666666663 520.96 692.8639999999997 516.1813333333333S677.6319999999997 510.6773333333333 670.3359999999997 514.2186666666666L599.808 548.6933333333334C599.1253333333333 549.12 598.2293333333333 549.3333333333334 597.3333333333333 549.3333333333334S595.5413333333333 549.12 594.688 548.7360000000001L524.16 514.2613333333334C516.864 510.6773333333334 508.2026666666666 511.4453333333333 501.6319999999999 516.224C495.0613333333333 521.0026666666668 491.6906666666666 529.0240000000001 492.8 537.0453333333334L503.808 614.784C503.936 615.6800000000001 503.8506666666666 616.6186666666667 503.552 617.472S502.8266666666667 619.136 502.144 619.7760000000001L447.5306666666667 676.1813333333333C441.8986666666667 682.0266666666666 439.936 690.5173333333333 442.4106666666667 698.24C444.928 705.9626666666667 451.4986666666667 711.6800000000001 459.4773333333334 713.088L536.7893333333334 726.6133333333333C537.6853333333333 726.784 538.5386666666667 727.1253333333334 539.264 727.6373333333333C539.9893333333333 728.192 540.5866666666667 728.8746666666667 541.0133333333333 729.6853333333333L577.9626666666666 799.0186666666666zM837.4186666666666 497.024C840.5333333333333 502.912 846.6773333333333 506.624 853.3333333333333 506.624S866.1333333333333 502.9546666666667 869.248 497.0666666666667L899.4559999999999 440.1066666666668C899.7973333333332 439.4240000000001 900.3093333333333 438.8693333333335 900.9066666666666 438.4426666666668S902.1866666666666 437.7173333333335 902.9546666666666 437.5893333333335L966.4426666666664 426.4533333333335C973.013333333333 425.3013333333335 978.3893333333332 420.6080000000001 980.4799999999998 414.2933333333335C982.5279999999998 407.9360000000002 980.9493333333332 400.9813333333335 976.2986666666666 396.2026666666668L931.456 349.8666666666667C930.944 349.312 930.56 348.6720000000001 930.3039999999997 347.9893333333333C930.0906666666666 347.264 930.0053333333332 346.5386666666666 930.0906666666666 345.7706666666667L939.136 281.9413333333333C940.0746666666666 275.328 937.3013333333334 268.7573333333334 931.8826666666666 264.832C926.5066666666664 260.9066666666667 919.3813333333331 260.3093333333334 913.3653333333332 263.2106666666666L855.4666666666665 291.5413333333334C854.7839999999999 291.8826666666667 854.0586666666665 292.0533333333333 853.3333333333331 292.0533333333333S851.8399999999998 291.8826666666667 851.1573333333332 291.5840000000001L793.2586666666666 263.2533333333334C787.2426666666667 260.3093333333334 780.16 260.9493333333334 774.7413333333332 264.8746666666667C769.3653333333332 268.8000000000001 766.5493333333332 275.3706666666667 767.4879999999998 281.9840000000001L776.5333333333331 345.8133333333334C776.6613333333331 346.5386666666667 776.5759999999998 347.3066666666668 776.3199999999998 348.0320000000001S775.7226666666666 349.3973333333334 775.1679999999998 349.9093333333334L730.3253333333332 396.2453333333334C725.6746666666664 401.0240000000001 724.0533333333333 408.0213333333334 726.1439999999999 414.336S733.6106666666666 425.3440000000001 740.1813333333332 426.4960000000001L803.6693333333333 437.632C804.3946666666666 437.76 805.1199999999999 438.0586666666667 805.7173333333332 438.4853333333333S806.8266666666665 439.5093333333333 807.1679999999998 440.1493333333333L837.4186666666666 497.024z" />
    <glyph glyph-name="back"
      unicode="&#xF114;"
      horiz-adv-x="1024" d="M724.5000106666666 832.4166656A42.6709333333333 42.6709333333333 0 0 1 695.1666773333333 819.5L289.833344 414.1666560000001A42.6709333333333 42.6709333333333 0 0 1 289.833344 353.833344L695.1666773333333 -51.4999893333334A42.6709333333333 42.6709333333333 0 1 1 755.4999893333334 8.8333226666667L380.3333333333333 384L755.4999893333334 759.1666666666667A42.6709333333333 42.6709333333333 0 0 1 724.5000106666666 832.4166656z" />
    <glyph glyph-name="forward"
      unicode="&#xF115;"
      horiz-adv-x="1024" d="M375.168 -51.4986666666666C383.5093333333333 -59.8399999999999 394.4106666666667 -64 405.3333333333333 -64S427.1573333333334 -59.8399999999999 435.4986666666667 -51.4986666666666L840.832 353.8346666666667C857.4933333333333 370.496 857.4933333333333 397.504 840.832 414.1653333333333L435.4986666666667 819.4986666666666C418.8373333333334 836.16 391.8293333333334 836.16 375.168 819.4986666666666S358.5066666666667 775.8293333333332 375.168 759.168L750.3359999999999 384L375.168 8.8320000000001C358.5066666666667 -7.8293333333332 358.5066666666667 -34.8373333333334 375.168 -51.4986666666666z" />
    <glyph glyph-name="collapse-arrow"
      unicode="&#xF116;"
      horiz-adv-x="1024" d="M563.4986666666666 627.4986666666666C546.8373333333334 644.1600000000001 519.8293333333334 644.1600000000001 503.168 627.4986666666666L97.8346666666667 222.1653333333334C81.1733333333334 205.5040000000001 81.1733333333334 178.4960000000001 97.8346666666667 161.8346666666666S141.5040000000001 145.1733333333334 158.1653333333334 161.8346666666666L533.3333333333333 537.0026666666668L908.5013333333332 161.8346666666666C916.8426666666666 153.4933333333334 927.744 149.3333333333334 938.6666666666666 149.3333333333334S960.4906666666666 153.4933333333334 968.832 161.8346666666666C985.4933333333335 178.496 985.4933333333335 205.5039999999999 968.832 222.1653333333334L563.4986666666666 627.4986666666666z" />
    <glyph glyph-name="u-turn-to-left"
      unicode="&#xF117;"
      horiz-adv-x="1024" d="M353.8346666666667 268.5013333333334C362.176 260.1600000000001 373.0773333333333 256 384 256S405.824 260.1600000000001 414.1653333333334 268.5013333333334C430.8266666666667 285.1626666666666 430.8266666666667 312.1706666666667 414.1653333333334 328.832L273.664 469.3333333333334H618.6666666666666C724.544 469.3333333333334 810.6666666666666 383.2106666666668 810.6666666666666 277.3333333333334S724.544 85.3333333333334 618.6666666666666 85.3333333333334H448C424.448 85.3333333333334 405.3333333333333 66.2186666666667 405.3333333333333 42.6666666666667S424.448 0 448 0H618.6666666666666C771.584 0 896 124.4160000000001 896 277.3333333333334S771.584 554.6666666666667 618.6666666666666 554.6666666666667H273.664L414.1653333333334 695.168C430.8266666666667 711.8293333333334 430.8266666666667 738.8373333333334 414.1653333333334 755.4986666666666S370.496 772.16 353.8346666666667 755.4986666666666L140.5013333333334 542.1653333333334C123.8400000000001 525.5040000000001 123.8400000000001 498.496 140.5013333333334 481.8346666666667L353.8346666666667 268.5013333333334z" />
    <glyph glyph-name="fullscreen"
      unicode="&#xF118;"
      horiz-adv-x="1024" d="M852.5000106666666 768.4166656A42.6709333333333 42.6709333333333 0 0 1 847.7916586666666 768L661.3333333333333 768A42.6709333333333 42.6709333333333 0 1 1 661.3333333333333 682.6666666666667L750.3333333333333 682.6666666666667L213.3333333333333 145.6666666666668L213.3333333333333 234.6666666666668A42.6709333333333 42.6709333333333 0 1 1 128 234.6666666666668L128 47.9166720000001A42.6709333333333 42.6709333333333 0 0 1 176.2083328 0L362.6666666666667 0A42.6709333333333 42.6709333333333 0 1 1 362.6666666666667 85.3333333333334L273.6666666666667 85.3333333333334L810.6666666666666 622.3333333333334L810.6666666666666 533.3333333333334A42.6709333333333 42.6709333333333 0 1 1 896 533.3333333333334L896 720.0833322666667A42.6709333333333 42.6709333333333 0 0 1 852.5000106666666 768.4166656zM170.6666666666667 768A42.6709333333333 42.6709333333333 0 0 1 162.5 767.2083328A42.6709333333333 42.6709333333333 0 0 1 155.1666666666667 765.0416661333334C154.9141269333333 764.9432170666666 154.6676629333333 764.8534421333334 154.4166656 764.7499989333334A42.6709333333333 42.6709333333333 0 0 1 147.5 761.1250005333334C147.3478037333333 761.0262122666667 147.192864 760.9342613333333 147.0416661333333 760.8333333333334A42.6709333333333 42.6709333333333 0 0 1 140.7499989333333 755.7083328C140.6712789333333 755.6307072 140.5782613333333 755.5783616 140.5 755.5C140.4639850666667 755.4639850666667 140.4525248 755.4111104 140.4166656 755.3749994666666A42.6709333333333 42.6709333333333 0 0 1 135.1250005333333 748.9166677333333C135.0872874666667 748.8599808 135.0374122666667 748.8068266666667 135 748.7499989333334A42.6709333333333 42.6709333333333 0 0 1 131.4166656 741.9166677333333C131.2923690666667 741.6224149333334 131.1590613333334 741.33808 131.0416661333333 741.0416661333334A42.6709333333333 42.6709333333333 0 0 1 128.9166677333333 733.9583338666666C128.8650602666667 733.7068352 128.7970368 733.4605504 128.7499989333333 733.2083328A42.6709333333333 42.6709333333333 0 0 1 128 725.3333333333334L128 533.3333333333334A42.6709333333333 42.6709333333333 0 1 1 213.3333333333333 533.3333333333334L213.3333333333333 622.3333333333334L421.4999893333334 414.1666560000001L481.833344 474.5000106666666L273.6666666666667 682.6666666666667L362.6666666666667 682.6666666666667A42.6709333333333 42.6709333333333 0 1 1 362.6666666666667 768L170.6666666666667 768zM602.5000106666666 353.833344L542.166656 293.4999893333334L750.3333333333333 85.3333333333334L661.3333333333333 85.3333333333334A42.6709333333333 42.6709333333333 0 1 1 661.3333333333333 0L853.3333333333333 0A42.6709333333333 42.6709333333333 0 0 1 861.4999893333334 0.7916586666668A42.6709333333333 42.6709333333333 0 0 1 868.8333226666666 2.958336C869.0858666666666 3.0567893333334 869.3323306666666 3.14656 869.5833386666666 3.2500053333333A42.6709333333333 42.6709333333333 0 0 1 876.5000106666666 6.875008A42.6709333333333 42.6709333333333 0 0 1 876.9583359999999 7.1666773333334A42.6709333333333 42.6709333333333 0 0 1 883.2500053333333 12.2916693333334A42.6709333333333 42.6709333333333 0 0 1 883.5833386666666 12.6250026666667A42.6709333333333 42.6709333333333 0 0 1 888.875008 19.0833280000001A42.6709333333333 42.6709333333333 0 0 1 888.9583359999999 19.2083413333334C888.9688106666667 19.2242133333333 888.9895466666667 19.234112 889 19.2500053333333A42.6709333333333 42.6709333333333 0 0 1 892.5833386666666 26.0833280000001C892.7076266666666 26.3775786666668 892.8409386666667 26.6619306666667 892.9583359999999 26.958336A42.6709333333333 42.6709333333333 0 0 1 895.0833279999999 34.0416640000001C895.1349333333333 34.2931626666667 895.2029653333334 34.539456 895.2500053333333 34.7916586666668A42.6709333333333 42.6709333333333 0 0 1 896 42.6666666666667L896 234.6666666666668A42.6709333333333 42.6709333333333 0 0 1 852.7083306666666 277.9166720000001A42.6709333333333 42.6709333333333 0 0 1 810.6666666666666 234.6666666666668L810.6666666666666 145.6666666666668L602.5000106666666 353.833344z" />
    <glyph glyph-name="first-1"
      unicode="&#xF119;"
      horiz-adv-x="1024" d="M256 768C232.448 768 213.3333333333333 748.8853333333334 213.3333333333333 725.3333333333334V42.6666666666667C213.3333333333333 19.1146666666667 232.448 0 256 0S298.6666666666667 19.1146666666667 298.6666666666667 42.6666666666667V725.3333333333334C298.6666666666667 748.8853333333334 279.552 768 256 768zM798.1653333333334 755.4986666666666C781.504 772.16 754.4960000000001 772.16 737.8346666666666 755.4986666666666L396.5013333333333 414.1653333333334C379.84 397.5040000000001 379.84 370.4960000000001 396.5013333333333 353.8346666666668L737.8346666666666 12.5013333333334C746.1759999999999 4.1600000000001 757.0773333333333 0 768 0S789.8240000000001 4.1600000000001 798.1653333333334 12.5013333333334C814.8266666666666 29.1626666666666 814.8266666666666 56.1706666666667 798.1653333333334 72.8320000000001L486.9973333333333 384L798.1653333333334 695.168C814.8266666666666 711.8293333333334 814.8266666666666 738.8373333333334 798.1653333333334 755.4986666666666z" />
    <glyph glyph-name="last-1"
      unicode="&#xF11A;"
      horiz-adv-x="1024" d="M768 768C744.448 768 725.3333333333333 748.8853333333334 725.3333333333333 725.3333333333334V42.6666666666667C725.3333333333333 19.1146666666667 744.448 0 768 0S810.6666666666666 19.1146666666667 810.6666666666666 42.6666666666667V725.3333333333334C810.6666666666666 748.8853333333334 791.5519999999999 768 768 768zM286.1653333333333 755.4986666666666C269.504 772.16 242.496 772.16 225.8346666666667 755.4986666666666S209.1733333333333 711.8293333333334 225.8346666666667 695.168L537.0026666666666 384L225.8346666666667 72.8320000000001C209.1733333333333 56.1706666666668 209.1733333333333 29.1626666666668 225.8346666666667 12.5013333333334C234.176 4.1600000000001 245.0773333333333 0 256 0S277.824 4.1600000000001 286.1653333333333 12.5013333333334L627.4986666666666 353.8346666666667C644.16 370.496 644.16 397.504 627.4986666666666 414.1653333333333L286.1653333333333 755.4986666666666z" />
    <glyph glyph-name="menu-vertical"
      unicode="&#xF11B;"
      horiz-adv-x="1024" d="M512 170.6666666666668A85.3333333333333 85.3333333333333 0 1 1 512 0A85.3333333333333 85.3333333333333 0 1 1 512 170.6666666666668zM512 469.3333333333334A85.3333333333333 85.3333333333333 0 1 1 512 298.6666666666668A85.3333333333333 85.3333333333333 0 1 1 512 469.3333333333334zM512 768A85.3333333333333 85.3333333333333 0 1 1 512 597.3333333333334A85.3333333333333 85.3333333333333 0 1 1 512 768z" />
    <glyph glyph-name="star-2"
      unicode="&#xF11C;"
      horiz-adv-x="1024" d="M512.2083413333332 789.3333333333334A32.0032 32.0032 0 0 1 483.3749973333333 771.6250005333334L373.4583253333334 551.7916586666668L112.4583338666667 511.6250026666667A32.0032 32.0032 0 0 1 94.7083328 457.3749973333333L275.2500053333333 276.8333226666668L235.041664 15.5416746666667A32.0032 32.0032 0 0 1 281.4583253333333 -17.7083306666666L512 102.5833386666667L742.5416746666666 -17.7083306666666A32.0032 32.0032 0 0 1 788.9583359999999 15.5416746666667L748.7499946666667 276.8333226666668L929.2916693333332 457.3749973333333A32.0032 32.0032 0 0 1 911.5416746666666 511.6250026666667L650.5416746666666 551.7916586666668L540.6250026666667 771.6250005333334A32.0032 32.0032 0 0 1 512.2083413333332 789.3333333333334z" />
    <glyph glyph-name="checkmark"
      unicode="&#xF11D;"
      horiz-adv-x="1024" d="M916.5000106666666 704.4166656A42.6709333333333 42.6709333333333 0 0 1 887.1666773333333 691.5L362.6666666666667 167L136.8333333333333 392.8333226666668A42.6709333333333 42.6709333333333 0 1 1 76.5 332.5000106666667L332.5000106666667 76.5000106666666A42.6709333333333 42.6709333333333 0 0 1 392.8333226666667 76.5000106666666L947.4999893333334 631.1666773333334A42.6709333333333 42.6709333333333 0 0 1 916.5000106666666 704.4166656z" />
    <glyph glyph-name="delete"
      unicode="&#xF11E;"
      horiz-adv-x="1024" d="M831.6250026666667 747.2916672A42.6709333333333 42.6709333333333 0 0 1 801.8333439999999 734.1666666666667L512 444.3333333333334L222.166656 734.1666666666667A42.6709333333333 42.6709333333333 0 0 1 191.5416661333333 747.0833322666667A42.6709333333333 42.6709333333333 0 0 1 161.8333333333333 673.833344L451.6666666666666 384L161.8333333333333 94.1666560000001A42.6709333333333 42.6709333333333 0 1 1 222.166656 33.833344L512 323.6666666666668L801.8333439999999 33.833344A42.6709333333333 42.6709333333333 0 1 1 862.166656 94.1666560000001L572.3333333333333 384L862.166656 673.833344A42.6709333333333 42.6709333333333 0 0 1 831.6250026666667 747.2916672z" />
    <glyph glyph-name="plus-math"
      unicode="&#xF120;"
      horiz-adv-x="1024" d="M511.3749973333333 789.9166677333333A42.6709333333333 42.6709333333333 0 0 1 469.3333333333333 746.6666666666667L469.3333333333333 426.6666666666667L149.3333333333333 426.6666666666667A42.6709333333333 42.6709333333333 0 1 1 149.3333333333333 341.3333333333334L469.3333333333333 341.3333333333334L469.3333333333333 21.3333333333334A42.6709333333333 42.6709333333333 0 1 1 554.6666666666666 21.3333333333334L554.6666666666666 341.3333333333334L874.6666666666666 341.3333333333334A42.6709333333333 42.6709333333333 0 1 1 874.6666666666666 426.6666666666667L554.6666666666666 426.6666666666667L554.6666666666666 746.6666666666667A42.6709333333333 42.6709333333333 0 0 1 511.3749973333333 789.9166677333333z" />
    <glyph glyph-name="add"
      unicode="&#xF123;"
      horiz-adv-x="1024" d="M512 810.6666666666666C276.737408 810.6666666666666 85.3333333333333 619.2624213333334 85.3333333333333 384C85.3333333333333 148.7375786666667 276.737408 -42.6666666666666 512 -42.6666666666666C747.262592 -42.6666666666666 938.6666666666666 148.7375786666667 938.6666666666666 384C938.6666666666666 619.2624213333334 747.262592 810.6666666666666 512 810.6666666666666zM512 746.6666666666667C712.6744533333333 746.6666666666667 874.6666666666666 584.6743253333334 874.6666666666666 384C874.6666666666666 183.3256746666666 712.6744533333333 21.3333333333334 512 21.3333333333334C311.3255466666667 21.3333333333334 149.3333333333333 183.3256746666666 149.3333333333333 384C149.3333333333333 584.6743253333334 311.3255466666667 746.6666666666667 512 746.6666666666667zM511.4999893333334 597.7916586666666A32.0032 32.0032 0 0 1 480 565.3333333333334L480 416L330.6666666666667 416A32.0032 32.0032 0 1 1 330.6666666666667 352L480 352L480 202.6666666666668A32.0032 32.0032 0 1 1 544 202.6666666666668L544 352L693.3333333333333 352A32.0032 32.0032 0 1 1 693.3333333333333 416L544 416L544 565.3333333333334A32.0032 32.0032 0 0 1 511.4999893333334 597.7916586666666z" />
    <glyph glyph-name="coin-wallet"
      unicode="&#xF124;"
      horiz-adv-x="1024" d="M597.3333333333333 789.3333333333334A64 64 0 0 1 725.3333333333333 789.3333333333334A64 64 0 0 1 597.3333333333333 789.3333333333334M768 640H467.1999999999999C468.5653333333333 646.912 469.3333333333333 654.0373333333333 469.3333333333333 661.3333333333334C469.3333333333333 720.2560000000001 421.5893333333334 768 362.6666666666667 768S256 720.2560000000001 256 661.3333333333334C256 654.0373333333333 256.768 646.912 258.1333333333334 640H256C185.3013333333333 640 128 582.6986666666667 128 512V128C128 57.3013333333333 185.3013333333333 0 256 0H768C838.6986666666667 0 896 57.3013333333333 896 128V512C896 582.6986666666667 838.6986666666667 640 768 640zM682.6666666666666 320A64 64 0 0 1 810.6666666666666 320A64 64 0 0 1 682.6666666666666 320M661.3333333333333 896C602.4106666666667 896 554.6666666666666 848.256 554.6666666666666 789.3333333333334S602.4106666666667 682.6666666666667 661.3333333333333 682.6666666666667S768 730.4106666666667 768 789.3333333333334S720.256 896 661.3333333333333 896zM674.8586666666666 749.696L674.8586666666666 749.696C674.8586666666666 743.3813333333334 669.7386666666666 738.2613333333334 663.424 738.2613333333334C657.1093333333333 738.2613333333334 651.9893333333332 743.3813333333334 651.9893333333332 749.696V814.2506666666667L645.8453333333332 809.6C640.9386666666666 805.888 633.8133333333333 807.3386666666667 630.7839999999999 812.7146666666666C628.1813333333332 817.2373333333334 629.4186666666666 822.9973333333334 633.6426666666666 826.0693333333334L650.4533333333333 838.3573333333334C653.0986666666665 840.2773333333333 656.2559999999999 841.344 659.5413333333332 841.344C668.0319999999999 841.344 674.9013333333332 834.4746666666666 674.9013333333332 825.984V749.696zM256 640H374.144C374.144 640.0853333333333 374.1866666666666 640.128 374.1866666666666 640.2133333333334C374.1866666666666 654.9333333333334 359.1253333333333 661.5893333333333 353.408 661.5893333333333C348.7146666666667 661.5893333333333 344.0213333333333 660.9066666666668 339.84 659.9680000000001C332.4586666666667 658.3893333333333 325.5893333333334 664.4480000000001 325.8453333333333 672L327.5946666666667 720.0426666666667C327.8933333333333 728.7893333333334 335.104 735.6586666666667 343.808 735.6586666666667H386.0053333333334C393.6426666666667 735.6586666666667 399.872 729.472 399.872 721.792C399.872 714.1546666666667 393.6853333333334 707.9253333333334 386.0053333333334 707.9253333333334H354.9866666666667L354.0053333333334 683.5626666666667C355.6266666666667 684.2453333333333 357.4613333333333 684.7573333333333 359.5093333333333 685.184C361.5573333333333 685.6106666666667 363.3493333333334 685.7813333333334 364.8 685.7813333333334C397.6960000000001 685.7813333333334 404.9493333333334 654.8053333333334 404.8640000000001 641.1946666666668C404.8640000000001 640.8106666666667 404.7786666666667 640.384 404.7786666666667 640H509.824C510.848 647.04 512 654.0373333333333 512 661.3333333333334C512 743.808 445.1413333333333 810.6666666666666 362.6666666666667 810.6666666666666S213.3333333333333 743.808 213.3333333333333 661.3333333333334C213.3333333333333 651.648 214.4426666666667 642.2186666666666 216.192 633.0453333333334C228.7786666666667 637.184 242.0053333333333 640 256 640z" />
    <glyph glyph-name="barbell"
      unicode="&#xF125;"
      horiz-adv-x="1024" d="M337.7839627284942 286.7301324498972L608.282469253726 557.2380813190512L685.2472001889493 480.2760369128648L414.7486936637174 209.7680880437108L337.7839627284941 286.7301324498972zM871.68 666.7093333333333L922.752 717.7813333333334C944 739.0293333333334 944 773.504 922.752 794.7520000000001L922.752 794.7520000000001C901.504 816 867.0293333333332 816 845.7813333333334 794.7520000000001L794.7093333333333 743.6800000000001L871.68 666.7093333333333zM152.32 101.2906666666667L101.248 50.2186666666667C80 28.9706666666666 80 -5.504 101.248 -26.752L101.248 -26.752C122.496 -48 156.9706666666667 -48 178.2186666666667 -26.752L229.2906666666667 24.3200000000001L152.32 101.2906666666667zM932.2666666666667 413.824L872.2773333333334 353.8346666666667C855.5946666666669 337.1520000000001 828.5866666666667 337.1520000000001 811.9466666666667 353.8346666666667L481.8346666666666 683.9466666666667C465.1519999999999 700.6293333333333 465.1519999999999 727.6373333333333 481.8346666666666 744.2773333333333L541.824 804.2666666666667C558.5066666666667 820.9493333333334 585.5146666666666 820.9493333333334 602.1546666666666 804.2666666666667L932.2666666666667 474.1546666666667C948.9066666666666 457.472 948.9066666666666 430.4640000000001 932.2666666666667 413.824zM968.064 551.5093333333334L941.824 525.2693333333334C925.1413333333333 508.5866666666667 898.1333333333333 508.5866666666667 881.4933333333333 525.2693333333334L653.2693333333333 753.4933333333333C636.5866666666666 770.176 636.5866666666666 797.184 653.2693333333333 813.8240000000001L679.5093333333333 840.064C696.192 856.7466666666667 723.1999999999999 856.7466666666667 739.8399999999999 840.064L968.064 611.84C984.7466666666666 595.1573333333333 984.7466666666666 568.1493333333333 968.064 551.5093333333334zM90.9653333333333 353.408L150.9546666666667 413.3973333333334C167.6373333333334 430.0800000000001 194.6453333333333 430.0800000000001 211.2853333333333 413.3973333333334L541.3973333333333 83.2853333333333C558.0799999999999 66.6026666666667 558.0799999999999 39.5946666666666 541.3973333333333 22.9546666666665L481.408 -37.0346666666667C464.7253333333333 -53.7173333333333 437.7173333333334 -53.7173333333333 421.0773333333333 -37.0346666666667L90.9653333333333 293.0773333333333C74.3253333333333 309.76 74.3253333333333 336.7680000000001 90.9653333333333 353.408zM55.168 215.7226666666667L81.408 241.9626666666667C98.0906666666667 258.6453333333334 125.0986666666667 258.6453333333334 141.7386666666667 241.9626666666667L369.9626666666666 13.7386666666666C386.6453333333333 -2.9440000000001 386.6453333333333 -29.952 369.9626666666666 -46.5920000000001L343.7226666666666 -72.832C327.04 -89.5146666666666 300.032 -89.5146666666666 283.392 -72.832L55.168 155.3920000000001C38.4853333333333 172.0746666666668 38.4853333333333 199.0826666666667 55.168 215.7226666666667z" />
    <glyph glyph-name="meditation"
      unicode="&#xF126;"
      horiz-adv-x="1024" d="M322.0906666666667 103.2533333333335H561.4933333333333V-42.6666666666666H322.0906666666667V103.2533333333335zM404.224 361.216H626.0053333333333V198.528H404.224V361.216zM512 810.6666666666666C441.3013333333334 810.6666666666666 384 753.3653333333334 384 682.6666666666667S441.3013333333334 554.6666666666667 512 554.6666666666667S640 611.9680000000001 640 682.6666666666667S582.6986666666667 810.6666666666666 512 810.6666666666666zM782.7199999999999 78.72L682.6666666666666 150.656V182.6986666666667C682.6666666666666 182.6986666666667 749.056 170.6666666666668 752.64 170.6666666666668C770.9013333333334 170.6666666666668 788.1386666666667 179.2000000000001 799.2746666666667 194.3466666666667C812.5866666666667 212.48 814.4213333333333 236.0746666666667 803.968 255.9146666666667L705.3226666666666 443.5626666666667C683.136 485.8026666666667 639.7013333333333 512 592 512H431.9573333333334C384.256 512 340.8640000000001 485.8026666666667 318.6346666666667 443.5626666666667L219.9893333333334 255.9573333333334C209.536 236.0746666666668 211.328 212.48 224.6826666666667 194.3893333333334S260.1386666666667 167.5946666666668 282.1973333333334 171.7333333333335L341.3333333333333 182.6986666666667V151.7226666666668L241.28 78.7200000000001C217.5573333333333 61.7386666666669 207.6586666666666 31.6160000000002 216.6186666666666 3.7973333333334S251.1786666666667 -42.6666666666666 280.3626666666667 -42.6666666666666H348.7573333333333C346.9653333333333 -37.6746666666666 345.344 -32.5973333333333 344.2346666666666 -27.3493333333332C338.7306666666667 -1.4506666666666 341.2906666666667 23.2106666666667 349.6533333333333 45.0133333333336C359.2106666666667 69.8026666666667 384.1706666666667 85.3333333333334 410.7946666666667 85.3333333333334H436.8213333333333C472.3626666666667 85.3333333333334 506.7093333333333 74.7946666666667 536.0213333333332 55.6373333333333L451.456 42.6666666666667C427.904 42.6666666666667 408.7893333333333 23.5946666666667 408.7893333333333 0S427.904 -42.6666666666666 451.456 -42.6666666666666H743.6373333333332C772.8213333333333 -42.6666666666666 798.4639999999999 -23.9786666666666 807.424 3.7973333333333S806.4426666666666 61.6960000000001 782.7199999999999 78.72zM426.6666666666667 228.6506666666667C426.6666666666667 275.7973333333335 464.8533333333333 341.3333333333334 512 341.3333333333334S597.3333333333333 275.7973333333335 597.3333333333333 228.6506666666667C597.3333333333333 181.5466666666666 559.1466666666666 256 512 256S426.6666666666667 181.5466666666666 426.6666666666667 228.6506666666667z" />
    <glyph glyph-name="expand-arrows"
      unicode="&#xF127;"
      horiz-adv-x="1024" d="M383.1666773333333 683.0833322666667A42.6709333333333 42.6709333333333 0 0 1 353.833344 670.166656L97.8333333333333 414.1666560000001A42.6709333333333 42.6709333333333 0 0 1 97.8333333333333 353.833344L353.833344 97.833344A42.6709333333333 42.6709333333333 0 1 1 414.166656 158.1666560000001L188.3333333333333 384L414.166656 609.833344A42.6709333333333 42.6709333333333 0 0 1 383.1666773333333 683.0833322666667zM639.5416746666666 683.0833322666667A42.6709333333333 42.6709333333333 0 0 1 609.8333439999999 609.833344L835.6666666666666 384L609.8333439999999 158.1666560000001A42.6709333333333 42.6709333333333 0 1 1 670.166656 97.833344L926.166656 353.833344A42.6709333333333 42.6709333333333 0 0 1 926.166656 414.1666560000001L670.166656 670.166656A42.6709333333333 42.6709333333333 0 0 1 639.5416746666666 683.0833322666667z" />
    <glyph glyph-name="expand-arrow"
      unicode="&#xF128;"
      horiz-adv-x="1024" d="M887.1679999999999 627.4986666666666L512 252.3306666666668L136.832 627.4986666666666C120.1706666666667 644.1600000000001 93.1626666666666 644.1600000000001 76.5013333333333 627.4986666666666S59.84 583.8293333333334 76.5013333333333 567.168L481.8346666666666 161.8346666666666C490.176 153.4933333333334 501.0773333333333 149.3333333333334 512 149.3333333333334S533.824 153.4933333333334 542.1653333333334 161.8346666666666L947.4986666666666 567.168C964.16 583.8293333333334 964.16 610.8373333333334 947.4986666666666 627.4986666666666S903.8293333333332 644.1600000000001 887.1679999999999 627.4986666666666z" />
    <glyph glyph-name="phone"
      unicode="&#xF129;"
      horiz-adv-x="1024" d="M131.6693333333333 575.1466666666668C141.1413333333333 504.6186666666667 178.2186666666667 342.528 324.3946666666667 196.3520000000001S632.6186666666666 13.0986666666668 703.1893333333334 3.6266666666668C754.3040000000001 -7.424 809.7280000000001 6.6133333333335 849.4506666666667 46.3360000000001C911.5733333333334 108.4586666666668 686.5493333333334 333.4826666666668 624.4266666666667 271.3600000000002L584.7893333333334 231.7226666666668L359.7653333333334 456.7466666666668L399.36 496.384C461.4826666666666 558.5066666666667 236.4586666666667 783.5306666666667 174.336 721.408C134.6133333333333 681.6853333333333 120.576 626.2613333333334 131.6693333333333 575.1466666666668zM174.464 721.5360000000001L399.4453333333334 496.5546666666667C461.4399999999999 558.72 461.4399999999999 659.328 399.3173333333333 721.4506666666666C337.28 783.488 236.6293333333334 783.5306666666667 174.464 721.5360000000001zM624.512 271.4880000000001L849.4933333333333 46.5066666666667C911.488 108.6293333333333 911.488 209.2800000000001 849.3653333333333 271.4026666666668C787.2853333333334 333.4400000000001 686.6773333333333 333.4826666666668 624.512 271.4880000000001z" />
    <glyph glyph-name="user"
      unicode="&#xF12A;"
      horiz-adv-x="1024" d="M298.6666666666667 597.3333333333334A213.3333333333333 213.3333333333333 0 0 1 725.3333333333333 597.3333333333334A213.3333333333333 213.3333333333333 0 0 1 298.6666666666667 597.3333333333334M768 256H256C185.3013333333333 256 128 198.6986666666667 128 128C128 57.3013333333333 185.3013333333333 0 256 0H768C838.6986666666667 0 896 57.3013333333333 896 128C896 198.6986666666667 838.6986666666667 256 768 256z" />
    <glyph glyph-name="checkmark-2"
      unicode="&#xF12B;"
      horiz-adv-x="1024" d="M224.768 438.1013333333334C183.1253333333333 479.744 115.584 479.744 73.8986666666667 438.1013333333334S32.256 328.9173333333333 73.8986666666667 287.2320000000001L272.0853333333333 89.0453333333335C333.9093333333333 27.2213333333334 434.0906666666666 27.2213333333334 495.9146666666666 89.0453333333335L534.8693333333333 128L224.768 438.1013333333334zM950.1013333333332 694.1013333333333C908.4586666666665 735.744 840.9173333333333 735.744 799.232 694.1013333333333L384 278.8693333333333L534.8693333333333 128L950.1013333333332 543.232C991.744 584.9173333333333 991.744 652.4586666666667 950.1013333333332 694.1013333333333z" />
    <glyph glyph-name="people-skin-type-7"
      unicode="&#xF12C;"
      horiz-adv-x="1024" d="M341.3333333333333 640A170.6666666666667 170.6666666666667 0 0 1 682.6666666666666 640A170.6666666666667 170.6666666666667 0 0 1 341.3333333333333 640M85.3333333333333 490.6666666666667A106.6666666666667 106.6666666666667 0 0 1 298.6666666666667 490.6666666666667A106.6666666666667 106.6666666666667 0 0 1 85.3333333333333 490.6666666666667M725.3333333333333 490.6666666666667A106.6666666666667 106.6666666666667 0 0 1 938.6666666666666 490.6666666666667A106.6666666666667 106.6666666666667 0 0 1 725.3333333333333 490.6666666666667M640 85.3333333333334H384C313.3013333333334 85.3333333333334 256 152.192 256 234.6666666666668V234.6666666666668C256 317.1413333333334 313.3013333333334 384 384 384H640C710.6986666666667 384 768 317.1413333333334 768 234.6666666666668V234.6666666666668C768 152.192 710.6986666666667 85.3333333333334 640 85.3333333333334zM919.5093333333332 298.6666666666668H101.2053333333333C45.312 298.6666666666668 0 253.3546666666668 0 197.4613333333334V186.496C0 130.6453333333334 45.312 85.3333333333334 101.2053333333333 85.3333333333334H919.5093333333332C977.1946666666666 85.3333333333334 1024 132.1386666666667 1024 189.8666666666667V194.1759999999999C1024 251.8613333333334 977.1946666666666 298.6666666666668 919.5093333333332 298.6666666666668z" />
    <glyph glyph-name="pay"
      unicode="&#xF12E;"
      horiz-adv-x="1024" d="M1024 725.3333333333334H426.6666666666667C379.52 725.3333333333334 341.3333333333333 687.1466666666668 341.3333333333333 640V213.3333333333334H1024V725.3333333333334zM618.6666666666666 469.3333333333334A149.3333333333334 170.6666666666667 0 0 1 917.3333333333331 469.3333333333334A149.3333333333334 170.6666666666667 0 0 1 618.6666666666666 469.3333333333334M426.6666666666667 469.3333333333334A42.6666666666667 42.6666666666667 0 0 1 512 469.3333333333334A42.6666666666667 42.6666666666667 0 0 1 426.6666666666667 469.3333333333334M0 469.3333333333334L120.6613333333333 589.9946666666667C152.704 622.0373333333333 196.096 640 241.3653333333334 640H341.3333333333333V297.6853333333334L490.8799999999999 358.1866666666667C529.536 373.8453333333335 573.8239999999998 364.8426666666667 603.3066666666666 335.3173333333334L603.3066666666666 335.3173333333334C646.1013333333333 292.5226666666668 643.4133333333332 222.336 597.4613333333332 182.9546666666668L444.3733333333333 51.7546666666667C405.4186666666666 18.3893333333334 355.7546666666666 0.128 304.4693333333333 0.384L0 1.9200000000001V469.3333333333334z" />
    <glyph glyph-name="download"
      unicode="&#xF130;"
      horiz-adv-x="1024" d="M768 0H256C185.3013333333333 0 128 57.3013333333333 128 128V640C128 710.6986666666667 185.3013333333333 768 256 768H768C838.6986666666667 768 896 710.6986666666667 896 640V128C896 57.3013333333333 838.6986666666667 0 768 0zM597.3333333333333 323.3706666666667V750.0373333333334C597.3333333333333 797.184 559.1466666666666 835.3706666666667 512 835.3706666666667S426.6666666666667 797.184 426.6666666666667 750.0373333333334V323.3706666666667H597.3333333333333zM335.744 384C302.848 384 286.2933333333333 344.3200000000001 309.4613333333333 320.9386666666667L473.984 154.8373333333334C494.9333333333333 133.7173333333334 529.0666666666666 133.7173333333334 550.016 154.8373333333334L714.5386666666666 320.9386666666668C737.7066666666666 344.3200000000001 721.152 384 688.256 384H335.744z" />
    <glyph glyph-name="no-image"
      unicode="&#xF131;"
      horiz-adv-x="1024" d="M213.3333333333333 725.3333333333334H810.6666666666666A128 128 0 0 0 938.6666666666666 597.3333333333334V170.6666666666668A128 128 0 0 0 810.6666666666666 42.6666666666667H213.3333333333333A128 128 0 0 0 85.3333333333333 170.6666666666668V597.3333333333334A128 128 0 0 0 213.3333333333333 725.3333333333334zM640 554.6666666666667A85.3333333333333 85.3333333333333 0 0 1 810.6666666666666 554.6666666666667A85.3333333333333 85.3333333333333 0 0 1 640 554.6666666666667M665.0026666666666 170.6666666666668H810.6666666666666A42.6666666666667 42.6666666666667 0 0 1 853.3333333333333 213.3333333333334C853.3333333333333 271.5306666666668 781.312 341.3333333333334 746.6666666666666 341.3333333333334S680.6186666666666 298.6666666666668 597.3333333333333 298.6666666666668C493.0986666666666 298.6666666666668 426.6666666666667 512 341.3333333333333 512A63.2746666666667 63.2746666666667 0 0 1 325.7173333333334 509.952zM257.664 457.3013333333333A452.8640000000001 452.8640000000001 0 0 1 170.6666666666667 213.3333333333334A42.6666666666667 42.6666666666667 0 0 1 213.3333333333333 170.6666666666668H544.3413333333333zM896 -42.6666666666666A42.6666666666667 42.6666666666667 0 0 0 865.8346666666666 -30.1653333333334L97.8346666666666 737.8346666666666A42.6666666666667 42.6666666666667 0 0 0 158.1653333333333 798.1653333333334L926.1653333333334 30.1653333333334A42.6666666666667 42.6666666666667 0 0 0 896 -42.6666666666666z" />
    <glyph glyph-name="right-arrow"
      unicode="&#xF133;"
      horiz-adv-x="1024" d="M85.3333333333333 341.3333333333334H835.6693333333333L695.1679999999999 200.8320000000001C678.5066666666667 184.1706666666668 678.5066666666667 157.1626666666668 695.1679999999999 140.5013333333334C703.5093333333332 132.1600000000001 714.4106666666667 128 725.3333333333333 128S747.1573333333333 132.1600000000001 755.4986666666666 140.5013333333334L968.832 353.8346666666667C976.832 361.8133333333334 981.3333333333331 372.6720000000001 981.3333333333331 384S976.832 406.1653333333334 968.832 414.1653333333334L755.4986666666666 627.4986666666667C738.8373333333334 644.1600000000001 711.8293333333334 644.1600000000001 695.1679999999999 627.4986666666667C678.5066666666667 610.8373333333334 678.5066666666667 583.8293333333334 695.1679999999999 567.1680000000001L835.6693333333333 426.6666666666667H85.3333333333333C61.7813333333333 426.6666666666667 42.6666666666667 407.552 42.6666666666667 384S61.7813333333333 341.3333333333334 85.3333333333333 341.3333333333334z" />
    <glyph glyph-name="location"
      unicode="&#xF14B;"
      horiz-adv-x="1024" d="M170.6666666666667 469.3333333333334C170.6666666666667 657.8346666666666 323.4986666666666 810.6666666666666 512 810.6666666666666S853.3333333333333 657.8346666666666 853.3333333333333 469.3333333333334C853.3333333333333 317.2693333333334 679.9359999999999 100.1813333333333 580.3093333333333 -11.9466666666667C544 -52.8213333333333 480 -52.8213333333333 443.6906666666667 -11.9466666666667C344.064 100.1813333333333 170.6666666666667 317.2693333333334 170.6666666666667 469.3333333333334zM384 469.3333333333334A128 128 0 0 1 640 469.3333333333334A128 128 0 0 1 384 469.3333333333334" />
    <glyph glyph-name="conference-foreground-selected"
      unicode="&#xF14C;"
      horiz-adv-x="1024" d="M661.3333333333333 341.3333333333334H362.6666666666667C280.192 341.3333333333334 213.3333333333333 274.4746666666668 213.3333333333333 192S280.192 42.6666666666667 362.6666666666667 42.6666666666667H661.3333333333333C743.808 42.6666666666667 810.6666666666666 109.5253333333334 810.6666666666666 192S743.808 341.3333333333334 661.3333333333333 341.3333333333334zM874.6666666666666 256H149.3333333333333C90.4106666666667 256 42.6666666666667 208.2560000000001 42.6666666666667 149.3333333333334S90.4106666666667 42.6666666666667 149.3333333333333 42.6666666666667H874.6666666666666C933.5893333333335 42.6666666666667 981.3333333333331 90.4106666666667 981.3333333333331 149.3333333333334S933.5893333333335 256 874.6666666666666 256zM341.3333333333333 597.3333333333334A170.6666666666667 170.6666666666667 0 0 1 682.6666666666666 597.3333333333334A170.6666666666667 170.6666666666667 0 0 1 341.3333333333333 597.3333333333334M725.3333333333333 512A128 128 0 0 1 981.3333333333331 512A128 128 0 0 1 725.3333333333333 512M42.6666666666667 512A128 128 0 0 1 298.6666666666667 512A128 128 0 0 1 42.6666666666667 512" />
    <glyph glyph-name="choice"
      unicode="&#xF14D;"
      horiz-adv-x="1024" d="M853.3333333333333 682.6666666666667C853.3333333333333 753.3653333333334 796.0319999999999 810.6666666666666 725.3333333333333 810.6666666666666H298.6666666666667C227.968 810.6666666666666 170.6666666666667 753.3653333333334 170.6666666666667 682.6666666666667V85.3333333333334C170.6666666666667 14.6346666666667 227.968 -42.6666666666666 298.6666666666667 -42.6666666666666H725.3333333333333C796.0319999999999 -42.6666666666666 853.3333333333333 14.6346666666667 853.3333333333333 85.3333333333334V682.6666666666667zM618.6666666666666 725.3333333333334H405.3333333333333C369.9626666666666 725.3333333333334 341.3333333333333 754.0053333333333 341.3333333333333 789.3333333333334S369.9626666666666 853.3333333333334 405.3333333333333 853.3333333333334H618.6666666666666C654.0373333333333 853.3333333333334 682.6666666666666 824.6613333333333 682.6666666666666 789.3333333333334S654.0373333333333 725.3333333333334 618.6666666666666 725.3333333333334zM512 512C504.064 512 349.2693333333333 512 341.3333333333333 512C317.7813333333334 512 298.6666666666667 492.8853333333333 298.6666666666667 469.3333333333334C298.6666666666667 445.7813333333334 317.7813333333334 426.6666666666667 341.3333333333333 426.6666666666667C349.2693333333333 426.6666666666667 504.064 426.6666666666667 512 426.6666666666667C535.5519999999999 426.6666666666667 554.6666666666666 445.7813333333334 554.6666666666666 469.3333333333334C554.6666666666666 492.8853333333333 535.5519999999999 512 512 512zM512 256C504.064 256 349.2693333333333 256 341.3333333333333 256C317.7813333333334 256 298.6666666666667 236.8853333333334 298.6666666666667 213.3333333333334C298.6666666666667 189.7813333333334 317.7813333333334 170.6666666666668 341.3333333333333 170.6666666666668C349.2693333333333 170.6666666666668 504.064 170.6666666666668 512 170.6666666666668C535.5519999999999 170.6666666666668 554.6666666666666 189.7813333333334 554.6666666666666 213.3333333333334C554.6666666666666 236.8853333333334 535.5519999999999 256 512 256zM640 469.3333333333334A42.6666666666667 42.6666666666667 0 0 1 725.3333333333333 469.3333333333334A42.6666666666667 42.6666666666667 0 0 1 640 469.3333333333334M640 213.3333333333334A42.6666666666667 42.6666666666667 0 0 1 725.3333333333333 213.3333333333334A42.6666666666667 42.6666666666667 0 0 1 640 213.3333333333334" />
    <glyph glyph-name="ratings"
      unicode="&#xF14E;"
      horiz-adv-x="1024" d="M384 85.3333333333334H469.3333333333333H597.3333333333333H725.3333333333333C796.0319999999999 85.3333333333334 853.3333333333333 142.6346666666667 853.3333333333333 213.3333333333334V597.3333333333334L682.6666666666666 810.6666666666666H597.3333333333333H469.3333333333333H384C313.3013333333334 810.6666666666666 256 753.3653333333334 256 682.6666666666667V213.3333333333334C256 142.6346666666667 313.3013333333334 85.3333333333334 384 85.3333333333334zM469.3333333333333 85.3333333333334H384C313.3013333333334 85.3333333333334 256 142.6346666666667 256 213.3333333333334V682.6666666666667C185.3013333333333 682.6666666666667 128 625.3653333333334 128 554.6666666666667V85.3333333333334C128 14.6346666666667 185.3013333333333 -42.6666666666666 256 -42.6666666666666H341.3333333333333H469.3333333333333H597.3333333333333C668.0319999999999 -42.6666666666666 725.3333333333333 14.6346666666667 725.3333333333333 85.3333333333334H597.3333333333333H469.3333333333333zM682.6666666666666 682.6666666666667V810.6666666666666L853.3333333333333 597.3333333333334H768C720.8533333333332 597.3333333333334 682.6666666666666 635.52 682.6666666666666 682.6666666666667zM764.7146666666665 485.632C760.4053333333333 496.0853333333333 752.0853333333332 504.4053333333333 741.6319999999998 508.7146666666667C736.4266666666667 510.8480000000001 730.8799999999999 512 725.3333333333333 512H614.9973333333332C576.9813333333333 512 557.952 466.048 584.8319999999999 439.168L609.8346666666666 414.1653333333333L512 316.3306666666668L414.1653333333334 414.1653333333334C397.4826666666667 430.8480000000001 370.5173333333334 430.8480000000001 353.8346666666667 414.1653333333334S337.1520000000001 370.5173333333335 353.8346666666667 353.8346666666668L481.8346666666667 225.8346666666668C490.1546666666666 217.5146666666667 501.0773333333333 213.3333333333334 512 213.3333333333334S533.8453333333333 217.5146666666667 542.1653333333334 225.8346666666667L670.1653333333334 353.8346666666667L695.1679999999999 328.832C722.0479999999999 301.952 768 320.9813333333334 768 358.9973333333334V469.3333333333334C768 474.8800000000001 766.848 480.4266666666667 764.7146666666665 485.632z" />
    <glyph glyph-name="search-client"
      unicode="&#xF150;"
      horiz-adv-x="1024" d="M512 810.6666666666666A213.3333333333333 213.3333333333333 0 0 1 512 384A213.3333333333333 213.3333333333333 0 0 1 512 810.6666666666666zM810.6666666666666 339.2083413333334C716.8 339.2083413333334 640 262.4083413333334 640 168.5416746666667C640 132.2750080000001 650.6750079999999 100.2750080000001 669.875008 72.5416746666667L565.3333333333333 -32C552.5333333333333 -42.6666666666666 552.5416746666666 -63.9916586666666 563.2083413333332 -76.7916586666666C569.6083413333333 -83.1916586666666 578.1333333333333 -85.3333333333333 586.6666666666666 -85.3333333333333C595.1999999999999 -85.3333333333333 603.7249919999999 -83.1916586666666 610.124992 -76.7916586666666L714.6666666666666 27.7499946666667C742.3999999999999 8.5499946666667 774.3999999999999 -2.124992 810.6666666666666 -2.124992C904.5333333333334 -2.124992 981.3333333333331 74.6750080000001 981.3333333333331 168.5416746666667C981.3333333333331 262.4083413333334 904.5333333333334 339.2083413333334 810.6666666666666 339.2083413333334zM266.6666666666667 298.6666666666668C213.3333333333333 298.6666666666668 170.6666666666667 256 170.6666666666667 202.6666666666668L170.6666666666667 170.6666666666668C170.6666666666667 51.2 320 -42.6666666666666 512 -42.6666666666666C516.2666666666667 -27.7333333333332 522.6666666666666 -12.8 533.3333333333333 0L616.5416746666666 83.2083413333334C603.7416746666667 108.8083413333334 597.3333333333333 140.8000000000001 597.3333333333333 170.6666666666668C597.3333333333333 219.7333333333334 614.4 262.4000000000001 640 298.6666666666668L266.6666666666667 298.6666666666668zM810.6666666666666 277.3333333333334C870.3999999999999 277.3333333333334 917.3333333333331 230.4000000000001 917.3333333333331 170.6666666666668C917.3333333333331 110.9333333333334 870.3999999999999 64 810.6666666666666 64C750.9333333333334 64 704 110.9333333333334 704 170.6666666666668C704 230.4000000000001 750.9333333333334 277.3333333333334 810.6666666666666 277.3333333333334z" />
    <glyph glyph-name="search"
      unicode="&#xF151;"
      horiz-adv-x="1024" d="M437.3333333333333 768C266.998528 768 128 629.001344 128 458.6666666666667C128 288.3319893333334 266.998528 149.3333333333334 437.3333333333333 149.3333333333334C507.160704 149.3333333333334 571.4969386666667 172.9489493333334 623.3749973333333 212.2500053333333L823.1666773333333 12.5000106666666A42.6709333333333 42.6709333333333 0 1 1 883.4999893333334 72.8333226666667L683.7499946666667 272.6250026666667C723.0510293333333 324.5030826666668 746.6666666666666 388.8393386666667 746.6666666666666 458.6666666666667C746.6666666666666 629.001344 607.6681386666667 768 437.3333333333333 768zM437.3333333333333 682.6666666666667C561.5506133333333 682.6666666666667 661.3333333333333 582.8838613333334 661.3333333333333 458.6666666666667C661.3333333333333 399.024832 638.1667199999999 345.1605120000001 600.5000106666666 305.124992A42.6709333333333 42.6709333333333 0 0 1 590.9583359999999 295.5833386666667C550.9141973333333 257.868736 497.0178133333333 234.6666666666668 437.3333333333333 234.6666666666668C313.1160533333333 234.6666666666668 213.3333333333333 334.449472 213.3333333333333 458.6666666666667C213.3333333333333 582.8838613333334 313.1160533333333 682.6666666666667 437.3333333333333 682.6666666666667z" />
    <glyph glyph-name="sort-down"
      unicode="&#xF152;"
      horiz-adv-x="1024" d="M821.3333333333333 618.6666666666667H202.6666666666667C190.5066666666667 618.6666666666667 179.3706666666666 611.7760000000001 173.9733333333333 600.8533333333334C168.576 589.952 169.856 576.9173333333333 177.216 567.2533333333333L486.5493333333333 161.9200000000001C492.6293333333333 153.9840000000002 502.016 149.3333333333334 512 149.3333333333334S531.3706666666667 153.9840000000002 537.4293333333333 161.9200000000001L846.7626666666666 567.2533333333334C854.1439999999999 576.9173333333334 855.4026666666666 589.9520000000001 850.0053333333333 600.8533333333335C844.6293333333333 611.7760000000001 833.4933333333333 618.6666666666667 821.3333333333333 618.6666666666667z" />
    <glyph glyph-name="sort-up"
      unicode="&#xF153;"
      horiz-adv-x="1024" d="M850.0266666666666 167.1466666666668C855.424 178.0480000000001 854.1439999999999 191.0826666666667 846.7839999999999 200.7466666666668L537.4506666666666 606.0800000000002C525.3333333333333 621.9520000000001 498.7093333333333 621.9520000000001 486.5706666666666 606.0800000000002L177.2373333333333 200.7466666666668C169.856 191.0826666666667 168.5973333333333 178.0480000000001 173.9946666666667 167.1466666666668C179.3706666666666 156.2240000000001 190.5066666666667 149.3333333333334 202.6666666666667 149.3333333333334H821.3333333333333C833.4933333333333 149.3333333333334 844.6293333333333 156.2240000000001 850.0266666666666 167.1466666666668z" />
    <glyph glyph-name="sort"
      unicode="&#xF154;"
      horiz-adv-x="1024" d="M534.1226666666666 716.4586666666667C521.7706666666666 728.2986666666667 502.2506666666666 728.2986666666667 489.8986666666666 716.4586666666667L244.5653333333333 481.792C235.1146666666667 472.7466666666667 232.128 458.88 236.992 446.7413333333334S253.5893333333334 426.6666666666667 266.6666666666667 426.6666666666667H757.3333333333333C770.3893333333333 426.6666666666667 782.1653333333334 434.624 787.0506666666666 446.7413333333334C791.9146666666667 458.8586666666667 788.9066666666668 472.7466666666667 779.4773333333334 481.792L534.1226666666666 716.4586666666667zM757.3333333333333 341.3333333333334H266.6666666666667C253.5893333333334 341.3333333333334 241.8346666666667 333.376 236.9706666666667 321.2586666666668S235.1146666666667 295.2533333333334 244.544 286.2080000000001L489.8773333333334 51.5413333333333C496.064 45.6320000000001 504.0213333333334 42.6666666666667 512 42.6666666666667S527.9359999999999 45.6320000000001 534.1226666666666 51.5413333333333L779.4559999999999 286.208C788.8853333333333 295.2533333333334 791.8933333333332 309.12 787.0293333333332 321.2586666666666C782.1653333333334 333.376 770.3893333333333 341.3333333333334 757.3333333333333 341.3333333333334z" />
    <glyph glyph-name="edit"
      unicode="&#xF155;"
      horiz-adv-x="1024" d="M824.6826666666666 500.5653333333333L876.7359999999999 552.6186666666667C930.7946666666664 606.6773333333333 930.7946666666664 694.6560000000001 876.7359999999999 748.736C850.56 774.8906666666667 815.7653333333333 789.2693333333333 778.6666666666665 789.2693333333333S706.7519999999997 774.8693333333333 680.5973333333332 748.7146666666667L628.5653333333331 696.6826666666667L824.6826666666666 500.5653333333333zM583.3173333333333 651.4346666666667L197.8453333333333 265.9626666666667C189.632 257.7493333333333 183.3813333333333 247.616 179.7546666666666 236.6293333333333L108.288 20.7146666666666C104.4693333333333 9.2373333333334 107.4773333333333 -3.4133333333334 116.032 -11.9680000000001C122.1546666666667 -18.0693333333334 130.304 -21.3333333333333 138.6666666666667 -21.3333333333333C142.0373333333333 -21.3333333333333 145.4293333333333 -20.8 148.736 -19.712L364.5866666666667 51.7760000000001C375.616 55.4026666666667 385.7706666666666 61.6533333333334 393.984 69.8879999999999L779.4346666666667 455.3386666666667L583.3173333333333 651.4346666666667z" />
    <glyph glyph-name="note"
      unicode="&#xF156;"
      horiz-adv-x="1024" d="M224 768C171.3599808 768 128 724.6400192 128 672L128 96C128 43.3599786666667 171.3599808 0 224 0L597.3333333333333 0L597.3333333333333 202.6666666666668C597.3333333333333 256.0746453333334 639.9253546666666 298.6666666666668 693.3333333333333 298.6666666666668L896 298.6666666666668L896 672C896 724.6400192 852.6400213333333 768 800 768L224 768zM330.6666666666667 597.3749973333333L693.3333333333333 597.3749973333333C710.9973333333334 597.3749973333333 725.3333333333333 583.0389973333333 725.3333333333333 565.3749973333333C725.3333333333333 547.7109973333334 710.9973333333334 533.3749973333333 693.3333333333333 533.3749973333333L330.6666666666667 533.3749973333333C313.0026666666667 533.3749973333333 298.6666666666667 547.7109973333334 298.6666666666667 565.3749973333333C298.6666666666667 583.0389973333333 313.0026666666667 597.3749973333333 330.6666666666667 597.3749973333333zM330.6666666666667 448.0416640000001L608 448.0416640000001C625.664 448.0416640000001 640 433.705664 640 416.0416640000001C640 398.3776640000001 625.664 384.0416640000001 608 384.0416640000001L330.6666666666667 384.0416640000001C313.0026666666667 384.0416640000001 298.6666666666667 398.3776640000001 298.6666666666667 416.0416640000001C298.6666666666667 433.705664 313.0026666666667 448.0416640000001 330.6666666666667 448.0416640000001zM704 234.6666666666668C680.4266666666666 234.6666666666668 661.3333333333333 215.5733333333334 661.3333333333333 192L661.3333333333333 18.7916586666668L877.2083413333332 234.6666666666668L704 234.6666666666668z" />
    <glyph glyph-name="sewing-tape-measure"
      unicode="&#xF157;"
      horiz-adv-x="1024" d="M309.3333333333333 789.3333333333334C135.8933333333333 789.3333333333334 0 700.3733333333333 0 586.6666666666667C0 581.76 0.1933333333333 577.0683306666667 0.8333333333333 572.3749973333333C0.1933333333333 570.241664 0 567.6800000000001 0 565.3333333333334L0 288C0 141.0133333333333 119.68 21.3333333333334 266.6666666666667 21.3333333333334L1024 21.3333333333334L1024 448L853.3333333333333 448L853.3333333333333 277.3333333333334C853.3333333333333 259.6266666666668 839.04 245.3333333333334 821.3333333333333 245.3333333333334C803.6266666666667 245.3333333333334 789.3333333333333 259.6266666666668 789.3333333333333 277.3333333333334L789.3333333333333 448L682.6666666666666 448L682.6666666666666 277.3333333333334C682.6666666666666 259.6266666666668 668.3733333333332 245.3333333333334 650.6666666666666 245.3333333333334C632.96 245.3333333333334 618.6666666666666 259.6266666666668 618.6666666666666 277.3333333333334L618.6666666666666 448L501.3333333333333 448L501.3333333333333 277.3333333333334C501.3333333333333 259.6266666666668 487.04 245.3333333333334 469.3333333333333 245.3333333333334C451.6266666666667 245.3333333333334 437.3333333333333 259.6266666666668 437.3333333333333 277.3333333333334L437.3333333333333 448L330.6666666666667 448L330.6666666666667 439.6666666666667L330.6666666666667 392.3333333333334L330.6666666666667 277.3333333333334C330.6666666666667 259.6266666666668 316.3733333333334 245.3333333333334 298.6666666666667 245.3333333333334C280.96 245.3333333333334 266.6666666666667 259.6266666666668 266.6666666666667 277.3333333333334L266.6666666666667 385.916672L266.6666666666667 436.5000106666667L266.6666666666667 450.124992C254.9333333333333 451.404992 243.2183253333334 453.1116586666667 232.124992 455.4583253333334C197.1383338666667 462.1783253333333 165.4066666666667 473.4216746666667 139.1666666666667 487.875008C126.0466666666667 495.1016746666667 114.26 503.1316693333333 104.1666666666667 511.7916586666667C94.0733333333333 520.4516693333334 85.6733333333333 529.7400106666666 79.1666666666667 539.4999893333334C69.3533333333333 554.4333226666668 64 570.24 64 586.6666666666667C64 661.76 176.4266666666667 725.3333333333334 309.3333333333333 725.3333333333334C442.24 725.3333333333334 554.6666666666666 661.76 554.6666666666666 586.6666666666667C554.6666666666666 568.96 568.96 554.6666666666667 586.6666666666666 554.6666666666667C604.3733333333332 554.6666666666667 618.6666666666666 568.96 618.6666666666666 586.6666666666667C618.6666666666666 700.3733333333333 482.7733333333333 789.3333333333334 309.3333333333333 789.3333333333334zM309.3333333333333 629.3333333333334A64 42.6666666666667 0 0 1 309.3333333333333 544A64 42.6666666666667 0 0 1 309.3333333333333 629.3333333333334z" />
    <glyph glyph-name="user-2"
      unicode="&#xF158;"
      horiz-adv-x="1024" d="M512 810.6666666666666A213.3333333333333 213.3333333333333 0 1 1 512 384A213.3333333333333 213.3333333333333 0 1 1 512 810.6666666666666zM768.448 298.6666666666668H255.552C208.7466666666667 298.6666666666668 170.6666666666667 260.5866666666667 170.6666666666667 213.7813333333334V181.3333333333334C170.6666666666667 110.6773333333334 210.88 49.5786666666667 283.8826666666667 9.3226666666667C344.6186666666667 -24.2133333333333 425.6426666666667 -42.6666666666666 512 -42.6666666666666C676.3946666666666 -42.6666666666666 853.3333333333333 27.4346666666668 853.3333333333333 181.3333333333334V213.7813333333334C853.3333333333333 260.5866666666667 815.2533333333333 298.6666666666668 768.448 298.6666666666668z" />
    </font>
</defs>
</svg>
